(Orchestral) Beethoven - Symphony No. 3 "Eroica", Leonore Overture No. 2 & 3 (Klemperer) - 1990, FLAC (image+.cue) lossless


 

[Цитировать]

Beethoven: Symphony No. 3 "Eroica", Leonore Overture No. 2 & 3
Жанр: Orchestral
Страна-производитель диска: England
Год издания диска: 1990
Издатель (лейбл): EMI
Номер по каталогу: CDM 7 63855 2
Дата записи: 1954, 1955
Аудиокодек: FLAC
Тип рипа: image+.cue
Битрейт аудио: lossless
Продолжительность: 01:16:04
Источник рипа: скачано из сети
Исполнители:
Otto Klemperer
Philharmonia Orchestra

Треклист

"Symphony No. 3 in E flat major (-Eroica-), Op. 55 - 1. Allegro con brio"
2. Marcia funebre (Adagio ...
3. Scherzo (Allegro vivace...
4. Finale (Allegro molto -...
'Leonore' Overture No. 2 in C major, Op. 72a
'Leonore' Overture No. 3 in C major, Op. 72b

EAC

Exact Audio Copy V1.0 beta 3 from 29. August 2011
EAC extraction logfile from 3. May 2012, 20:41
Otto Klemperer / Beethoven - Symphonie No. 3 'Eroica'; Leonore Overtures Nos. 2 & 3 - Klemperer
Used drive : HL-DT-STDVDRAM GSA-H10A Adapter: 0 ID: 0
Read mode : Secure
Utilize accurate stream : Yes
Defeat audio cache : Yes
Make use of C2 pointers : No
Read offset correction : 667
Overread into Lead-In and Lead-Out : No
Fill up missing offset samples with silence : Yes
Delete leading and trailing silent blocks : No
Null samples used in CRC calculations : Yes
Used interface : Native Win32 interface for Win NT & 2000
Used output format : User Defined Encoder
Selected bitrate : 1024 kBit/s
Quality : High
Add ID3 tag : No
Command line compressor : C:\Program Files\Exact Audio Copy\Flac\flac.exe
Additional command line options : -8 -V -T "TITLE=%title%" -T "ARTIST=%artist%" -T "ALBUMARTIST=%albumartist%" -T "ALBUM=%albumtitle%" -T "DATE=%year%" -T "TRACKNUMBER=%tracknr%" -T "TRACKTOTAL=%numtracks%" -T "GENRE=%genre%" -T "COMMENT=%comment%" -T "PERFORMER=%albuminterpret%" -T "COMPOSER=%composer%" %source% -o %dest%
TOC of the extracted CD
Track | Start | Length | Start sector | End sector
---------------------------------------------------------
1 | 0:00.33 | 15:48.37 | 33 | 71169
2 | 15:48.70 | 14:38.48 | 71170 | 137067
3 | 30:27.43 | 6:23.50 | 137068 | 165842
4 | 36:51.18 | 12:32.27 | 165843 | 222269
5 | 49:23.45 | 13:09.48 | 222270 | 281492
6 | 62:33.18 | 13:31.20 | 281493 | 342337
Range status and errors
Selected range
Filename F:\Ripped general\[0637] Beethoven - Symphonie No. 3 'Eroica'; Leonore Overtures Nos. 2 & 3 - Klemperer\Beethoven - Symphonie No. 3 'Eroica'; Leonore Overtures Nos. 2 & 3 - Klemperer.wav
Peak level 99.6 %
Extraction speed 7.6 X
Range quality 100.0 %
Test CRC 4C058515
Copy CRC 4C058515
Copy OK
No errors occurred
AccurateRip summary
Track 1 accurately ripped (confidence 3) [3CCE16B1] (AR v1)
Track 2 accurately ripped (confidence 3) [0AE9D3BF] (AR v1)
Track 3 accurately ripped (confidence 3) [5F6396C5] (AR v1)
Track 4 accurately ripped (confidence 2) [5B8B6890] (AR v1)
Track 5 accurately ripped (confidence 3) [3D6BF416] (AR v1)
Track 6 accurately ripped (confidence 2) [56F05F52] (AR v1)
All tracks accurately ripped
End of status report



Показать сообщения:    

Текущее время: 09-Дек 01:06

Часовой пояс: UTC + 3


Вы не можете начинать темы
Вы не можете отвечать на сообщения
Вы не можете редактировать свои сообщения
Вы не можете удалять свои сообщения
Вы не можете голосовать в опросах
Вы не можете прикреплять файлы к сообщениям
Вы не можете скачивать файлы