(Classical/Orchestral/Choral) Модест Мусоргский / Modest Mussorgsky - Ночь на Лысой горе и другие шедевры (Abbado, London Symphony Orchestra and Chorus) - 1992, FLAC (image+.cue) lossless


 

[Цитировать]

Модест Мусоргский / Modest Mussorgsky - Ночь на Лысой горе и другие шедевры (Abbado, London Symphony Orchestra and Chorus)
Жанр: Classical/Orchestral/Choral
Страна-производитель диска: Россия
Год издания диска: 1992
Издатель (лейбл): Elite Classics
Дата записи: 1980
Аудиокодек: FLAC
Тип рипа: image+.cue
Битрейт аудио: lossless
Продолжительность: 54:16
Источник: собственный рип
Наличие сканов в содержимом раздачи: да
Треклист:
1. Khovanshchina: Galitsin's Journey
2. Joshua
3. Salammbo: Chorus Of Priestesses
4. Scherzo
5. Destruction Of Sennacherib
6. Night On Bald Mountain
7. Oedipus In Athens
8. Khovanshchina: Prelude
9. Triumphal March
Исполнители:
Chorus – London Symphony Chorus
Chorus Master – Richard Hickox
Conductor – Claudio Abbado
Orchestra – London Symphony Orchestra
Orchestrated By – Rimsky-Korsakov (tracks: 1 to 3, 4, 7, 8)

Эта же запись, винил рип.
Claudio Abbado Conducts Mussorgsky - Vinyl Rip

Лог создания рипа

Exact Audio Copy V1.0 beta 4 from 7. December 2014
EAC extraction logfile from 2. May 2015, 13:59
Modest Mussorgsky; Claudio Abbado, London Symphony Orchestra, London Symphony Chorus / Mussorgsky
Used drive : ATAPI iHAS124 A Adapter: 1 ID: 0
Read mode : SecureUtilize accurate stream : YesDefeat audio cache : YesMake use of C2 pointers : No
Read offset correction : 6Overread into Lead-In and Lead-Out : NoFill up missing offset samples with silence : YesDelete leading and trailing silent blocks : NoNull samples used in CRC calculations : YesUsed interface : Native Win32 interface for Win NT & 2000
Used output format : Internal WAV RoutinesSample format : 44.100 Hz; 16 Bit; Stereo
TOC of the extracted CD
Track | Start | Length | Start sector | End sector --------------------------------------------------------- 1 | 0:00.00 | 4:48.40 | 0 | 21639 2 | 4:48.40 | 5:39.42 | 21640 | 47106 3 | 10:28.07 | 6:00.18 | 47107 | 74124 4 | 16:28.25 | 3:31.00 | 74125 | 89949 5 | 19:59.25 | 6:39.42 | 89950 | 119916 6 | 26:38.67 | 11:57.20 | 119917 | 173711 7 | 38:36.12 | 3:48.00 | 173712 | 190811 8 | 42:24.12 | 6:16.30 | 190812 | 219041 9 | 48:40.42 | 5:35.50 | 219042 | 244216
Range status and errors
Selected range
Filename C:\Modest Mussorgsky; Claudio Abbado, London Symphony Orchestra, London Symphony Chorus\Modest Mussorgsky; Claudio Abbado, London Symphony Orchestra, London Symphony Chorus - Mussorgsky.wav
Peak level 91.4 % Extraction speed 5.9 X Range quality 99.9 % Test CRC 10D2DD5E Copy CRC 10D2DD5E Copy OK
No errors occurred
AccurateRip summary
Track 1 cannot be verified as accurate (confidence 5) [EBE13A4F], AccurateRip returned [DAF28DC6] (AR v2)Track 2 cannot be verified as accurate (confidence 5) [CDEF77BB], AccurateRip returned [D4DE5DEE] (AR v2)Track 3 cannot be verified as accurate (confidence 5) [F2EEDC30], AccurateRip returned [50D5128D] (AR v2)Track 4 cannot be verified as accurate (confidence 5) [C0EC2E5E], AccurateRip returned [3EF8EFC9] (AR v2)Track 5 cannot be verified as accurate (confidence 5) [05973B26], AccurateRip returned [4AC98363] (AR v2)Track 6 cannot be verified as accurate (confidence 5) [26167AF8], AccurateRip returned [5CE55F7A] (AR v2)Track 7 cannot be verified as accurate (confidence 5) [ECF7BB17], AccurateRip returned [0B0FEF76] (AR v2)Track 8 cannot be verified as accurate (confidence 5) [815F214C], AccurateRip returned [0D3B2D91] (AR v2)Track 9 cannot be verified as accurate (confidence 5) [F9FD292E], AccurateRip returned [198AB832] (AR v2)
No tracks could be verified as accurateYou may have a different pressing from the one(s) in the database
End of status report
---- CUETools DB Plugin V2.1.4
[CTDB TOCID: 6xvzfU_eplQ9Xc_8JocvnaxdDRc-] foundSubmit result: 6xvzfU_eplQ9Xc_8JocvnaxdDRc- has been confirmedTrack | CTDB Status 1 | (8/8) Accurately ripped 2 | (8/8) Accurately ripped 3 | (8/8) Accurately ripped 4 | (8/8) Accurately ripped 5 | (8/8) Accurately ripped 6 | (8/8) Accurately ripped 7 | (8/8) Accurately ripped 8 | (8/8) Accurately ripped 9 | (8/8) Accurately ripped



Показать сообщения:    

Текущее время: 04-Дек 02:57

Часовой пояс: UTC + 3


Вы не можете начинать темы
Вы не можете отвечать на сообщения
Вы не можете редактировать свои сообщения
Вы не можете удалять свои сообщения
Вы не можете голосовать в опросах
Вы не можете прикреплять файлы к сообщениям
Вы не можете скачивать файлы