(Symphony) Wolfgang Amadeus Mozart - Symphonies No. 40 G minor & No. 41 C major (Barry Wordsworth, 1988) - 2001, FLAC (image+.cue), lossless


 

[Цитировать]

Wolfgang Amadeus Mozart - Symphonies No. 40 G minor & No. 41 C major (Barry Wordsworth, 1988)
Жанр: Symphony
Год выпуска диска: 2001
Производитель диска: E.C.
Аудио кодек: FLAC
Тип рипа: image+.cue
Битрейт аудио: lossless
Продолжительность: 61:42
Трэклист:
Symphony No. 40
1. Molto allegro
2. Andante
3. Menuetto: Allegretto
4. Allegro assai
Symphony No. 41
5. Allegro vivace
6. Andante cantabile
7. Menuetto: Allegretto
8. Molto allegro
Доп. информация:
Capella Istropolitana
Barry Wordsworth

log

Exact Audio Copy V1.0 beta 4 from 7. December 2014
EAC extraction logfile from 2. May 2015, 15:13
Wolfgang Amadeus Mozart; Capella Istropolitana, Barry Wordsworth / Symphonies nos. 40, 41 "Jupiter"
Used drive : ATAPI iHAS124 A Adapter: 1 ID: 0
Read mode : SecureUtilize accurate stream : YesDefeat audio cache : YesMake use of C2 pointers : No
Read offset correction : 6Overread into Lead-In and Lead-Out : NoFill up missing offset samples with silence : YesDelete leading and trailing silent blocks : NoNull samples used in CRC calculations : YesUsed interface : Native Win32 interface for Win NT & 2000
Used output format : Internal WAV RoutinesSample format : 44.100 Hz; 16 Bit; Stereo
TOC of the extracted CD
Track | Start | Length | Start sector | End sector --------------------------------------------------------- 1 | 0:00.00 | 7:31.00 | 0 | 33824 2 | 7:31.00 | 7:45.00 | 33825 | 68699 3 | 15:16.00 | 4:38.00 | 68700 | 89549 4 | 19:54.00 | 5:10.00 | 89550 | 112799 5 | 25:04.00 | 11:22.00 | 112800 | 163949 6 | 36:26.00 | 11:24.00 | 163950 | 215249 7 | 47:50.00 | 4:45.00 | 215250 | 236624 8 | 52:35.00 | 9:28.00 | 236625 | 279224
Range status and errors
Selected range
Filename C:\Wolfgang Amadeus Mozart; Capella Istropolitana, Barry Wordsworth - Symphonies nos. 40, 41 ''Jupiter''\Wolfgang Amadeus Mozart; Capella Istropolitana, Barry Wordsworth - Symphonies nos. 40, 41 ''Jupiter''.wav
Peak level 99.9 % Extraction speed 5.8 X Range quality 100.0 % Test CRC 5ED26374 Copy CRC 5ED26374 Copy OK
No errors occurred
AccurateRip summary
Track 1 accurately ripped (confidence 2) [CB03461F] (AR v2)Track 2 accurately ripped (confidence 2) [D3D97519] (AR v2)Track 3 accurately ripped (confidence 2) [7E9F1926] (AR v2)Track 4 accurately ripped (confidence 2) [830EAADC] (AR v2)Track 5 accurately ripped (confidence 2) [83ADEA09] (AR v2)Track 6 accurately ripped (confidence 2) [A172371C] (AR v2)Track 7 accurately ripped (confidence 2) [A6C2A4AC] (AR v2)Track 8 accurately ripped (confidence 2) [CAC8A11E] (AR v2)
All tracks accurately ripped
End of status report
---- CUETools DB Plugin V2.1.4
[CTDB TOCID: Gw3cpKgKlxO9pL969TN7_SfrbVE-] foundSubmit result: Gw3cpKgKlxO9pL969TN7_SfrbVE- has been confirmedTrack | CTDB Status 1 | (22/24) Accurately ripped 2 | (22/24) Accurately ripped 3 | (23/24) Accurately ripped 4 | (24/24) Accurately ripped 5 | (23/24) Accurately ripped 6 | (24/24) Accurately ripped 7 | (24/24) Accurately ripped 8 | (23/24) Accurately ripped



Показать сообщения:    

Текущее время: 11-Дек 09:11

Часовой пояс: UTC + 3


Вы не можете начинать темы
Вы не можете отвечать на сообщения
Вы не можете редактировать свои сообщения
Вы не можете удалять свои сообщения
Вы не можете голосовать в опросах
Вы не можете прикреплять файлы к сообщениям
Вы не можете скачивать файлы