(Symphonic, Choral, Vocal) Edvard Grieg - Peer Gynt (Эдвард Григ) Neville Marriner, 1983, FLAC (image+.cue) lossless


 

[Цитировать]

Edvard Grieg - Peer Gynt - Marriner
Жанр: Symphonic, Choral, Vocal
Страна-производитель диска: Россия
Год издания диска: 1998
Издатель (лейбл): Gala records
Дата записи: 1983
Аудиокодек: FLAC
Тип рипа: image+.cue
Битрейт аудио: lossless
Продолжительность: 48:17
Источник: собственный рип
Наличие сканов в содержимом раздачи: да
Треклист:
Peer Gynt. Incidental Music Op. 23
1. Act 1: Prelude (Wedding Scene)
2. Act 1: Wedding March (Orch. Halvorsen)
3. Act 2: Prelude (Abduction & Ingrid's Lament)
4. Act 2: In The Hall Of The Mountain King
5. Act 2: Dance Of The Mountain King's Daughter
6. Act 2: Aase's Death
7. Act 4: Prelude (Morning)
8. Act 4: Arabian Dance
9. Act 4: Anitra's Dance
10. Act 4: Solveig's Song
11. Act 5: Prelude (Return Of Peer Gynt - Storm Scene)
12. Act 5: Solveig's Cradle Song
Исполнители:
Academy of St. Martyn in the Fields, Conductor: Sir Neville Marriner
Stephen Shingles (viola)
The Ambrosian Singers, Chorus Master: John McCarthy
Lucia Popp (soprano)

Лог создания рипа

Exact Audio Copy V1.0 beta 4 from 7. December 2014
EAC extraction logfile from 29. April 2015, 12:28
Edvard Grieg; Lucia Popp, The Ambrosian Singers, Academy of St Martin in the Fields, Sir Neville Marriner / Peer Gynt
Used drive : ATAPI iHAS124 A Adapter: 1 ID: 0
Read mode : SecureUtilize accurate stream : YesDefeat audio cache : YesMake use of C2 pointers : No
Read offset correction : 6Overread into Lead-In and Lead-Out : NoFill up missing offset samples with silence : YesDelete leading and trailing silent blocks : NoNull samples used in CRC calculations : YesUsed interface : Native Win32 interface for Win NT & 2000
Used output format : Internal WAV RoutinesSample format : 44.100 Hz; 16 Bit; Stereo
TOC of the extracted CD
Track | Start | Length | Start sector | End sector --------------------------------------------------------- 1 | 0:00.00 | 5:16.00 | 0 | 23699 2 | 5:16.00 | 3:11.25 | 23700 | 38049 3 | 8:27.25 | 3:51.02 | 38050 | 55376 4 | 12:18.27 | 2:43.23 | 55377 | 67624 5 | 15:01.50 | 1:43.10 | 67625 | 75359 6 | 16:44.60 | 5:49.22 | 75360 | 101556 7 | 22:34.07 | 4:19.33 | 101557 | 121014 8 | 26:53.40 | 4:51.02 | 121015 | 142841 9 | 31:44.42 | 3:26.38 | 142842 | 158329 10 | 35:11.05 | 5:48.37 | 158330 | 184466 11 | 40:59.42 | 2:25.48 | 184467 | 195389 12 | 43:25.15 | 4:52.02 | 195390 | 217291
Range status and errors
Selected range
Filename C:\Edvard Grieg; Lucia Popp, The Ambrosian Singers, Academy of St Martin in the Fields, Sir Neville Marriner - Peer Gynt\Edvard Grieg; Lucia Popp, The Ambrosian Singers, Academy of St Martin in the Fields, Sir Neville Marriner - Peer Gynt.wav
Peak level 93.5 % Extraction speed 5.5 X Range quality 100.0 % Test CRC A5EBA6B0 Copy CRC A5EBA6B0 Copy OK
No errors occurred
AccurateRip summary
Track 1 cannot be verified as accurate (confidence 8) [FF8423B2], AccurateRip returned [F3A8DC49] (AR v2)Track 2 cannot be verified as accurate (confidence 8) [302447ED], AccurateRip returned [10DE4265] (AR v2)Track 3 cannot be verified as accurate (confidence 8) [3A5344FC], AccurateRip returned [F887E003] (AR v2)Track 4 cannot be verified as accurate (confidence 8) [6E9350EC], AccurateRip returned [A46C5AE8] (AR v2)Track 5 cannot be verified as accurate (confidence 8) [A75E7819], AccurateRip returned [EE203B97] (AR v2)Track 6 cannot be verified as accurate (confidence 8) [4C88E8B9], AccurateRip returned [86DF94B3] (AR v2)Track 7 cannot be verified as accurate (confidence 8) [6E0AC8D9], AccurateRip returned [ED8C8F2C] (AR v2)Track 8 cannot be verified as accurate (confidence 8) [71B95BBF], AccurateRip returned [D590641B] (AR v2)Track 9 cannot be verified as accurate (confidence 8) [2FD9EFF3], AccurateRip returned [5D815E07] (AR v2)Track 10 cannot be verified as accurate (confidence 8) [A547027F], AccurateRip returned [63CEA35C] (AR v2)Track 11 cannot be verified as accurate (confidence 7) [375C483C], AccurateRip returned [0D39606B] (AR v2)Track 12 cannot be verified as accurate (confidence 8) [2BA2135F], AccurateRip returned [BD6ED901] (AR v2)
No tracks could be verified as accurateYou may have a different pressing from the one(s) in the database
End of status report
---- CUETools DB Plugin V2.1.4
[CTDB TOCID: QV7H4sWJ4oSQCaPH1BKQ15pZKl8-] foundSubmit result: QV7H4sWJ4oSQCaPH1BKQ15pZKl8- has been confirmedTrack | CTDB Status 1 | (4/4) Accurately ripped 2 | (4/4) Accurately ripped 3 | (4/4) Accurately ripped 4 | (4/4) Accurately ripped 5 | (4/4) Accurately ripped 6 | (4/4) Accurately ripped 7 | (4/4) Accurately ripped 8 | (4/4) Accurately ripped 9 | (4/4) Accurately ripped 10 | (4/4) Accurately ripped 11 | (4/4) Accurately ripped 12 | (4/4) Accurately ripped



Показать сообщения:    

Текущее время: 10-Дек 19:43

Часовой пояс: UTC + 3


Вы не можете начинать темы
Вы не можете отвечать на сообщения
Вы не можете редактировать свои сообщения
Вы не можете удалять свои сообщения
Вы не можете голосовать в опросах
Вы не можете прикреплять файлы к сообщениям
Вы не можете скачивать файлы