(Classical) Ludwig van Beethoven — Overtures • Symphony № 5 Op 67 (Академический симфонический оркестр Новосибирской филармонии, А. Кац; Академический симфонический оркестр С.-Перебургской филармонии, А. Дмитриев) — 1997, APE (image+.cue) lossless


 

[Цитировать]

Overtures • Symphony № 5 Op 67- Жанр: Classical
Страна-производитель диска: Россия
Год издания диска: 1997
Издатель (лейбл): Manchester Files / Бомба-Питер
Номер по каталогу: CDMAN 116
Композитор: Ludwig van Beethoven
Аудио кодек: ape
Тип рипа: image+.cue
Битрейт аудио: lossless
Продолжительность: 01h08'44"
Источник: собственный рип
Наличие сканов в содержимом раздачи: нет-Треклист:
01. Overture to «Fidelio» E-Dur Op 72b [00h06'22"]
02. Overture «Leonore» № 3 C-Dur Op 72a [00h13'53"]
03. Overture «Coriolanus» e-moll Op 62 [00h08'48"]
04. Overture «Egmont» № 1 f-moll Op 84 [00h08'35"]
Symphony № 5 c-moll Op 67
05. I. Allegro con brio [00h06'58"]
06. II. Andante [00h09'53"]
07. III. Allegro, IV. Finale [00h14'15"]-(01-04) Академический симфонический оркестр Новосибирской филармонии, дир. Арнольд Кац
(05-07) Академический симфонический оркестр Санкт-Перебургской филармонии, дир. Александр Дмитриев-

EAC log

Exact Audio Copy V0.99 prebeta 5 from 4. May 2009
Отчёт EAC об извлечении, выполненном 29. апреля 2015, 18:11
Beethoven / Overtures Symphony № 5
Дисковод: MITSUMI CR-486ETE   Adapter: 0  ID: 0
Режим чтения                 : Достоверность
Использование точного потока : Да
Отключение кэша аудио        : Да
Использование указателей C2  : Нет
Коррекция смещения при чтении                     : 6
Способность читать области Lead-in и Lead-out     : Нет
Заполнение пропущенных сэмплов тишиной            : Да
Удаление блоков с тишиной в начале и конце        : Нет
При вычислениях CRC использовались нулевые сэмплы : Да
Интерфейс                                         : Установленный внешний ASPI-интерфейс
Выходной формат          : Monkey's Audio (без потерь)
Выбранный битрейт        : Normal Lossless Compression
Качество                 : Высокий
Добавление ID3-тэга      : Нет
Утилита сжатия           : C:\Program Files\Monkey's Audio\MAC.exe
TOC извлечённого CD
     Трек |   Старт  | Длительность | Начальный сектор | Конечный сектор
    ---------------------------------------------------------------------
       1  |  0:00.32 |    6:21.40   |          32      |      28646
       2  |  6:21.72 |   13:53.08   |       28647      |      91129
       3  | 20:15.05 |    8:48.10   |       91130      |     130739
       4  | 29:03.15 |    8:35.12   |      130740      |     169376
       5  | 37:38.27 |    6:57.68   |      169377      |     200719
       6  | 44:36.20 |    9:52.42   |      200720      |     245161
       7  | 54:28.62 |   14:15.25   |      245162      |     309311
Характеристики диапазона извлечения и сообщения об ошибках
Выбранный диапазон
     Имя файла D:\Музыка lossless\Beethoven Overtures Symphony № 5\Beethoven - Overtures Symphony № 5.wav
     Пиковый уровень 89.1 %
     Качество диапазона 100.0 %
     CRC теста DDE9ED2F
     CRC копии DDE9ED2F
     Копирование... OK
Ошибок не произошло
AccurateRip: сводка
Трек  1  нет в базе данных
Трек  2  нет в базе данных
Трек  3  нет в базе данных
Трек  4  нет в базе данных
Трек  5  нет в базе данных
Трек  6  нет в базе данных
Трек  7  нет в базе данных
Ни одного трека нет в базе AccurateRip
Конец отчёта

-

CUE

REM GENRE Classical
REM DATE 1997
REM DISCID 59101C07
REM COMMENT "ExactAudioCopy v0.99pb5"
PERFORMER "Beethoven"
TITLE "Overtures Symphony № 5"
FILE "Beethoven - Overtures Symphony № 5.ape" WAVE
  TRACK 01 AUDIO
    TITLE "Overture to «Fidelio» E-Dur Op 72b"
    PERFORMER "Beethoven"
    INDEX 00 00:00:00
    INDEX 01 00:00:32
  TRACK 02 AUDIO
    TITLE "Overture «Leonore» № 3 C-Dur Op 72a"
    PERFORMER "Beethoven"
    INDEX 00 06:17:25
    INDEX 01 06:21:72
  TRACK 03 AUDIO
    TITLE "Overture «Coriolanus» e-moll Op 62"
    PERFORMER "Beethoven"
    INDEX 00 20:10:25
    INDEX 01 20:15:05
  TRACK 04 AUDIO
    TITLE "Overture «Egmont» № 1 f-moll Op 84"
    PERFORMER "Beethoven"
    INDEX 00 28:57:05
    INDEX 01 29:03:15
  TRACK 05 AUDIO
    TITLE "Symphony № 5 c-moll Op 67 – I. Allegro con brio"
    PERFORMER "Beethoven"
    INDEX 00 37:33:37
    INDEX 01 37:38:27
  TRACK 06 AUDIO
    TITLE "Symphony № 5 c-moll Op 67 – II. Andante"
    PERFORMER "Beethoven"
    INDEX 00 44:31:72
    INDEX 01 44:36:20
  TRACK 07 AUDIO
    TITLE "Symphony № 5 c-moll Op 67 – III. Allegro, IV. Finale"
    PERFORMER "Beethoven"
    INDEX 00 54:22:40
    INDEX 01 54:28:62
-



Показать сообщения:    

Текущее время: 05-Дек 21:39

Часовой пояс: UTC + 3


Вы не можете начинать темы
Вы не можете отвечать на сообщения
Вы не можете редактировать свои сообщения
Вы не можете удалять свои сообщения
Вы не можете голосовать в опросах
Вы не можете прикреплять файлы к сообщениям
Вы не можете скачивать файлы