(Симфоническая музыка) П. И. Чайковский - Времена Года, Буря (Евгений Светланов) - 2005, FLAC (image+.cue), lossless


 

[Цитировать]

П. И. Чайковский - Времена Года, Буря (Евгений Светланов)
Жанр: Симфоническая музыка
Год выпуска диска: 2005
Производитель диска: Россия
Аудио кодек: FLAC
Тип рипа: image+.cue
Битрейт аудио: lossless
Продолжительность: 69 минут
Трэклист:
Времена года
12 характеристических пьес, соч.37-бис
Инструментовка А.Гаука
01. Времена года - Январь. У камелька [05:18.22]
02. Времена года - Февраль. Масленица [02:56.60]
03. Времена года - Март. Песнь жаворонка [02:44.13]
04. Времена года - Апрель. Подснежник [03:10.15]
05. Времена года - Май. Белые ночи [03:49.52]
06. Времена года - Июнь. Баркарола [05:58.38]
07. Времена года - Июль. Песнь косаря [02:06.15]
08. Времена года - Август. Жатва [04:08.22]
09. Времена года - Сентябрь. Охота [02:59.60]
10. Времена года - Октябрь. Осенняя песнь [05:35.73]
11. Времена года - Ноябрь. На тройке [02:46.60]
12. Времена года - Декабрь. Святки [04:52.25]
13. Буря

log

Exact Audio Copy V1.0 beta 4 from 7. December 2014
EAC extraction logfile from 28. April 2015, 18:21
П. И. Чайковский / Времена Года, Буря
Used drive : ATAPI iHAS124 A Adapter: 1 ID: 0
Read mode : Secure
Utilize accurate stream : Yes
Defeat audio cache : Yes
Make use of C2 pointers : No
Read offset correction : 6
Overread into Lead-In and Lead-Out : No
Fill up missing offset samples with silence : Yes
Delete leading and trailing silent blocks : No
Null samples used in CRC calculations : Yes
Used interface : Native Win32 interface for Win NT & 2000
Used output format : Internal WAV Routines
Sample format : 44.100 Hz; 16 Bit; Stereo
TOC of the extracted CD
Track | Start | Length | Start sector | End sector
---------------------------------------------------------
1 | 0:00.00 | 5:18.22 | 0 | 23871
2 | 5:18.22 | 2:56.60 | 23872 | 37131
3 | 8:15.07 | 2:44.13 | 37132 | 49444
4 | 10:59.20 | 3:10.15 | 49445 | 63709
5 | 14:09.35 | 3:49.52 | 63710 | 80936
6 | 17:59.12 | 5:58.38 | 80937 | 107824
7 | 23:57.50 | 2:06.15 | 107825 | 117289
8 | 26:03.65 | 4:08.22 | 117290 | 135911
9 | 30:12.12 | 2:59.60 | 135912 | 149396
10 | 33:11.72 | 5:35.73 | 149397 | 174594
11 | 38:47.70 | 2:47.17 | 174595 | 187136
12 | 41:35.12 | 4:54.62 | 187137 | 209248
13 | 46:29.74 | 23:05.45 | 209249 | 313168
Range status and errors
Selected range
Filename C:\П. И. Чайковский - Времена Года, Буря (Светланов)\П. И. Чайковский - Времена Года, Буря.wav
Peak level 97.8 %
Extraction speed 6.2 X
Range quality 99.9 %
Test CRC 508FB11D
Copy CRC 508FB11D
Copy OK
No errors occurred
AccurateRip summary
Track 1 accurately ripped (confidence 1) [793CC78F] (AR v1)
Track 2 accurately ripped (confidence 1) [2AA09670] (AR v1)
Track 3 accurately ripped (confidence 1) [1CB5025B] (AR v1)
Track 4 accurately ripped (confidence 1) [1E4CE443] (AR v1)
Track 5 accurately ripped (confidence 1) [7C929918] (AR v1)
Track 6 accurately ripped (confidence 1) [D0AA6A0F] (AR v1)
Track 7 accurately ripped (confidence 1) [95DDB8D3] (AR v1)
Track 8 accurately ripped (confidence 1) [091E5604] (AR v1)
Track 9 accurately ripped (confidence 1) [F6C08BE3] (AR v1)
Track 10 accurately ripped (confidence 1) [2CC869AF] (AR v1)
Track 11 accurately ripped (confidence 1) [2E4D9102] (AR v1)
Track 12 accurately ripped (confidence 1) [B0E46C7D] (AR v1)
Track 13 accurately ripped (confidence 1) [716CE509] (AR v1)
All tracks accurately ripped
End of status report
---- CUETools DB Plugin V2.1.4
[CTDB TOCID: iO0qNpdrkAzilDOPoy.LsitnPTk-] found
Submit result: already submitted
Track | CTDB Status
1 | (1/1) Accurately ripped
2 | (1/1) Accurately ripped
3 | (1/1) Accurately ripped
4 | (1/1) Accurately ripped
5 | (1/1) Accurately ripped
6 | (1/1) Accurately ripped
7 | (1/1) Accurately ripped
8 | (1/1) Accurately ripped
9 | (1/1) Accurately ripped
10 | (1/1) Accurately ripped
11 | (1/1) Accurately ripped
12 | (1/1) Accurately ripped
13 | (1/1) Accurately ripped



Показать сообщения:    

Текущее время: 11-Дек 14:58

Часовой пояс: UTC + 3


Вы не можете начинать темы
Вы не можете отвечать на сообщения
Вы не можете редактировать свои сообщения
Вы не можете удалять свои сообщения
Вы не можете голосовать в опросах
Вы не можете прикреплять файлы к сообщениям
Вы не можете скачивать файлы