(Симфоническая музыка) П. И. Чайковский - Симфония 6, Воевода, Andante Cantabile (Светланов) - 2007, FLAC (image+.cue), lossless


 

[Цитировать]

Чайковский - Симфония 6, Воевода, Andante Cantabile (Светланов)
Жанр: Симфоническая музыка
Год выпуска диска: 2007
Производитель диска: Россия
Аудио кодек: FLAC
Тип рипа: image+.cue
Битрейт аудио: lossless
Продолжительность: 65 минут
Трэклист:
Симфония № 6 си минор, соч. 74 «Патетическая»
1. 1. Adagio — Allegro non troppo 18.45
2. 2. Allegro con grazia 07.21
3. 3. Allegro molto vivace 08.45
4. 4. Finale (Adagio lamcnloso) 10.40
5. «Воевода», симфоническая баллада по Мицкевивичу, соч. 78 11.52
6. Анданте кантабиле 7.19
Общее время звучания: 65.16
Государственный симфонический оркестр СССР
Дирижер Евгений Светланов
Запись: 1967 (1-4), 1989 (5,6)
Номер диска в каталоге: MEL CD 10 00198

log

Exact Audio Copy V1.0 beta 4 from 7. December 2014
EAC extraction logfile from 28. April 2015, 18:00
Чайковский / Symphony no. 6 'Pathetique', Voyevoda, Andante cantabile (Svetlanov - USSR SO)
Used drive : ATAPI iHAS124 A Adapter: 1 ID: 0
Read mode : Secure
Utilize accurate stream : Yes
Defeat audio cache : Yes
Make use of C2 pointers : No
Read offset correction : 6
Overread into Lead-In and Lead-Out : No
Fill up missing offset samples with silence : Yes
Delete leading and trailing silent blocks : No
Null samples used in CRC calculations : Yes
Used interface : Native Win32 interface for Win NT & 2000
Used output format : Internal WAV Routines
Sample format : 44.100 Hz; 16 Bit; Stereo
TOC of the extracted CD
Track | Start | Length | Start sector | End sector
---------------------------------------------------------
1 | 0:00.33 | 18:52.10 | 33 | 84942
2 | 18:52.43 | 7:24.37 | 84943 | 118279
3 | 26:17.05 | 8:49.73 | 118280 | 158027
4 | 35:07.03 | 10:50.07 | 158028 | 206784
5 | 45:57.10 | 11:59.48 | 206785 | 260757
6 | 57:56.58 | 7:19.50 | 260758 | 293732
Range status and errors
Selected range
Filename C:\Чайковский - Symphony no. 6 'Pathetique', Voyevoda, Andante cantabile (Svetlanov - USSR SO)\Чайковский - Symphony no. 6 'Pathetique', Voyevoda, Andante cantabile (Svetlanov - USSR SO).wav
Peak level 97.8 %
Extraction speed 6.2 X
Range quality 100.0 %
Test CRC FD61562C
Copy CRC FD61562C
Copy OK
No errors occurred
AccurateRip summary
Track 1 accurately ripped (confidence 3) [F998950B] (AR v2)
Track 2 accurately ripped (confidence 3) [61385667] (AR v2)
Track 3 accurately ripped (confidence 3) [377FCE1D] (AR v2)
Track 4 accurately ripped (confidence 3) [27665055] (AR v2)
Track 5 accurately ripped (confidence 3) [3F924FAB] (AR v2)
Track 6 accurately ripped (confidence 2) [09ED42CD] (AR v2)
All tracks accurately ripped
End of status report
---- CUETools DB Plugin V2.1.4
[CTDB TOCID: Vmicq8iCG8UfG6.vwxNb.4kcCPM-] found
Submit result: already submitted
Track | CTDB Status
1 | (1/1) Accurately ripped
2 | (1/1) Accurately ripped
3 | (1/1) Accurately ripped
4 | (1/1) Accurately ripped
5 | (1/1) Accurately ripped
6 | (1/1) Accurately ripped
[/spoiler



Показать сообщения:    

Текущее время: 11-Дек 01:22

Часовой пояс: UTC + 3


Вы не можете начинать темы
Вы не можете отвечать на сообщения
Вы не можете редактировать свои сообщения
Вы не можете удалять свои сообщения
Вы не можете голосовать в опросах
Вы не можете прикреплять файлы к сообщениям
Вы не можете скачивать файлы