(Classical/Postminimalism) Michael Gordon - Dystopia (LA Philharmonic, David Robertson) & Rewriting Beethoven\'s Seventh Symphony (Bamberger Symphoniker, Jonathan Nott) - 2015, FLAC (image+.cue) lossless


 

[Цитировать]

Michael Gordon - Dystopia
Жанр: Classical/Postminimalism
Страна-производитель диска: USA
Год издания диска: 2015
Издатель (лейбл): Cantaloup Music
Номер по каталогу: CA21105
Аудиокодек: FLAC
Тип рипа: image+.cue
Битрейт аудио: lossless
Продолжительность: 52'39"
Источник: собственный рип
Наличие сканов в содержимом раздачи: да
Треклист:
1. Dystopia
Los Angeles Philharmonic
David Robertson
Rec.12.I.2008

Rewriting Beethoven's Seventh Symphony
2. Part 1
3. Part 2
4. Part 3
5. Part 4
Bamberger Symphoniker
Jonathan Nott
Rec.30.IX.2006

-

Лог создания рипа

Exact Audio Copy V1.0 beta 4 from 7. December 2014
EAC extraction logfile from 18. April 2015, 21:27
Michael Gordon / Dystopia
Used drive : TSSTcorpDVDWBD TS-LB23A Adapter: 1 ID: 0
Read mode : SecureUtilize accurate stream : YesDefeat audio cache : YesMake use of C2 pointers : No
Read offset correction : 6Overread into Lead-In and Lead-Out : NoFill up missing offset samples with silence : YesDelete leading and trailing silent blocks : NoNull samples used in CRC calculations : YesUsed interface : Native Win32 interface for Win NT & 2000
Used output format : User Defined EncoderSelected bitrate : 128 kBit/sQuality : HighAdd ID3 tag : YesCommand line compressor : C:\Program Files (x86)\Exact Audio Copy\Flac\flac.exeAdditional command line options : -T "COMMENT=Ripped by GFox" -V -8 %source%
TOC of the extracted CD
Track | Start | Length | Start sector | End sector --------------------------------------------------------- 1 | 0:00.00 | 31:01.05 | 0 | 139579 2 | 31:01.05 | 5:46.67 | 139580 | 165596 3 | 36:47.72 | 7:38.49 | 165597 | 199995 4 | 44:26.46 | 4:20.52 | 199996 | 219547 5 | 48:47.23 | 3:51.71 | 219548 | 236943
Range status and errors
Selected range
Filename D:\Downloads\Michael Gordon - Dystopia.wav
Peak level 100.0 % Extraction speed 1.7 X Range quality 100.0 % Test CRC BBD76D95 Copy CRC BBD76D95 Copy OK
No errors occurred
AccurateRip summary
Track 1 not present in databaseTrack 2 not present in databaseTrack 3 not present in databaseTrack 4 not present in databaseTrack 5 not present in database
None of the tracks are present in the AccurateRip database
End of status report
==== Log checksum 5C1B672BA51DC5A18AD11154734A0A393642394D75B46A0B59DC72DC0282F16B ====
-Доп. информация: Написанная по заказу Лос-Анджелеского филармонического оркестра Dystopia (Антиутопия) по замыслу композитора должна отражать ауру современных городов. В каждой из частей Rewriting Beethoven's Seventh Symphony Гордон использовал по одной музыкальной идее из соответствующей части бетховенской симфонии. Музыкальный постмодернизм в чистом виде.-



Показать сообщения:    

Текущее время: 03-Дек 18:43

Часовой пояс: UTC + 3


Вы не можете начинать темы
Вы не можете отвечать на сообщения
Вы не можете редактировать свои сообщения
Вы не можете удалять свои сообщения
Вы не можете голосовать в опросах
Вы не можете прикреплять файлы к сообщениям
Вы не можете скачивать файлы