(Orchestral) Hermann Scherchen - from Purcell to Hartmann: Elisabethan Dances of XVIth century | Purcell - Suite from King Arthur | Стравинский - Pulcinella | Hartmann - Symphonie Nr.6 - 1999, FLAC (image+.cue) lossless


 

[Цитировать]

Hermann Scherchen
from Purcell to Hartmann
-
-- Жанр: Orchestral
Страна-производитель диска: France
Год издания диска: 1999
Издатель (лейбл): TAHRA
Дата записи: 1948-58
Аудиокодек: FLAC
Тип рипа: image+.cue
Битрейт аудио: lossless
Продолжительность: 68'25''
Источник: собственный рип
Наличие сканов в содержимом раздачи: да
Треклист:
[01] Elisabethanische Tanze des 16. Jh. (Arr. Scherchen)
[02] Purcell - King Arthur, Suite (Arr. Scherchen)
[03] Strawinsky - Pulcinella
[04] Hartmann - Symphonie Nr. 6: I. Adagio
[05] II. Toccata variata
Исполнители:
Berliner Rundfunk-Sinfonieorchester [1]
Frankfurter Rundfunk-Sinfonieorchester [2, 4-5]
Berliner Staatsopernorchester [3]
Hermann Scherchen-

Лог создания рипа

Exact Audio Copy V1.0 beta 4 from 7. December 2014
EAC extraction logfile from 4. March 2015, 23:01
Hermann Scherchen / From Purcell to Hartmann
Used drive : HL-DT-STDVD+-RW GU90N Adapter: 1 ID: 0
Read mode : SecureUtilize accurate stream : YesDefeat audio cache : YesMake use of C2 pointers : No
Read offset correction : 102Overread into Lead-In and Lead-Out : NoFill up missing offset samples with silence : YesDelete leading and trailing silent blocks : NoNull samples used in CRC calculations : YesUsed interface : Native Win32 interface for Win NT & 2000
Used output format : User Defined EncoderSelected bitrate : 1024 kBit/sQuality : HighAdd ID3 tag : NoCommand line compressor : C:\Program Files (x86)\FLAC\flac.exeAdditional command line options : -T "COMMENT=rip by el coronel" -8 -V %source%
TOC of the extracted CD
Track | Start | Length | Start sector | End sector --------------------------------------------------------- 1 | 0:00.00 | 10:07.72 | 0 | 45596 2 | 10:07.72 | 10:45.40 | 45597 | 94011 3 | 20:53.37 | 25:27.55 | 94012 | 208591 4 | 46:21.17 | 12:05.65 | 208592 | 263031 5 | 58:27.07 | 9:57.43 | 263032 | 307849
Range status and errors
Selected range
Filename F:\Music\Scherchen - From Purcell to Hartmann\CD.wav
Peak level 93.3 % Extraction speed 4.5 X Range quality 100.0 % Test CRC FC4E1532 Copy CRC FC4E1532 Copy OK
No errors occurred
AccurateRip summary
Track 1 accurately ripped (confidence 1) [AADF11FB] (AR v1)Track 2 accurately ripped (confidence 1) [149F624F] (AR v1)Track 3 accurately ripped (confidence 1) [268080C4] (AR v1)Track 4 accurately ripped (confidence 1) [E91A419D] (AR v1)Track 5 accurately ripped (confidence 1) [8B6478C3] (AR v1)
All tracks accurately ripped
End of status report
---- CUETools DB Plugin V2.1.4
[CTDB TOCID: YAktS_mWyGvlpYBhz0vmUbpRmC4-] disk not present in databaseSubmit result: YAktS_mWyGvlpYBhz0vmUbpRmC4- has been uploaded
==== Log checksum 4BC245D27F52B62215FC2C4556107478D3D1A6E905FC0CAA5D0B96D62A056DE7 ====

Содержание индексной карты (.CUE)

REM GENRE ClassicalREM DATE 1996REM DISCID 43100805REM COMMENT ExactAudioCopy v1.0b4PERFORMER "Hermann Scherchen"TITLE "Scherchen - From Purcell to Hartmann"FILE "CD.flac" WAVE TRACK 01 AUDIO TITLE "Elisabethanische Tanze des 16. Jh. (Arr. Scherchen)" PERFORMER "Berliner Rundfunk-Sinfonieorchester - Hermann Scherchen" INDEX 01 00:00:00 TRACK 02 AUDIO TITLE "Purcell - King Arthur, Suite (Arr. Scherchen)" PERFORMER "Orchestra of Radio Frankfurt - Hermann Scherchen" INDEX 00 10:00:30 INDEX 01 10:07:72 TRACK 03 AUDIO TITLE "Strawinsky - Pulcinella" PERFORMER "Berlin State Opera Orchestra - Hermann Scherchen" INDEX 00 20:45:70 INDEX 01 20:53:37 TRACK 04 AUDIO TITLE "Hartmann - Symphonie Nr. 6: I. Adagio" PERFORMER "Orchestra of Radio Frankfurt - Hermann Scherchen" INDEX 00 46:13:50 INDEX 01 46:21:17 TRACK 05 AUDIO TITLE "II. Toccata variata" PERFORMER "Orchestra of Radio Frankfurt - Hermann Scherchen" INDEX 01 58:27:07
-Доп. информация: Герман Шерхен во всём многообразии своих таланта и репертуара.



Показать сообщения:    

Текущее время: 22-Янв 04:43

Часовой пояс: UTC + 3


Вы не можете начинать темы
Вы не можете отвечать на сообщения
Вы не можете редактировать свои сообщения
Вы не можете удалять свои сообщения
Вы не можете голосовать в опросах
Вы не можете прикреплять файлы к сообщениям
Вы не можете скачивать файлы