(Orchestral) Петр Чайковский - Симфония №4 | Alban Berg - Lulu / Альбан Берг - Лулу suite (Hermann Scherchen) - 2003, FLAC (image+.cue) lossless


 

[Цитировать]

Петр Чайковский - Симфония №4 | Alban Berg - Lulu / Альбан Берг - Лулу suite (Hermann Scherchen)
Hermann Scherchen
-
-- Жанр: Orchestral
Страна-производитель диска: Italy
Год издания диска: 2003
Издатель (лейбл): Urania
Дата записи: 1951, 53
Аудиокодек: FLAC
Тип рипа: image+.cue
Битрейт аудио: lossless
Продолжительность: 79'09''
Источник: собственный рип
Наличие сканов в содержимом раздачи: да
Треклист:
П.Чайковский - Симфония №4:
[01] I. Andante sostenuto - Moderato con anima
[02] II. Andantino in modo di canzona
[03] III. Scherzo (Allegro)
[04] IV. Finale (Allegro con fuoco)
A.Berg - »Lulu« suite:
[05] I. Rondo (Andante und Hymne)
[06] II. Ostinato (Allegro)
[07] III. Lied der Lulu (Comodo)
[08] IV. Variationen (Moderato)
[09] V. Adagio (Sostenuto, Lento, Grave)
Исполнители:
Annelies Kupper - soprano
Wiener Staatsopernorchester [1-4]
Sinfonieorchester des Bayerischen Rundfunks
Hermann Scherchen
-

Лог создания рипа

Exact Audio Copy V1.0 beta 4 from 7. December 2014
EAC extraction logfile from 13. January 2015, 0:15
Hermann Scherchen / Scherchen dirige Tchaikovsky, Berg
Used drive : HL-DT-STDVD+-RW GU90N Adapter: 1 ID: 0
Read mode : SecureUtilize accurate stream : YesDefeat audio cache : YesMake use of C2 pointers : No
Read offset correction : 102Overread into Lead-In and Lead-Out : NoFill up missing offset samples with silence : YesDelete leading and trailing silent blocks : NoNull samples used in CRC calculations : YesUsed interface : Native Win32 interface for Win NT & 2000
Used output format : User Defined EncoderSelected bitrate : 1024 kBit/sQuality : HighAdd ID3 tag : NoCommand line compressor : C:\Program Files (x86)\FLAC\flac.exeAdditional command line options : -T "COMMENT=rip by el coronel" -8 -V %source%
TOC of the extracted CD
Track | Start | Length | Start sector | End sector --------------------------------------------------------- 1 | 0:00.00 | 18:53.50 | 0 | 85024 2 | 18:53.50 | 7:51.64 | 85025 | 120413 3 | 26:45.39 | 6:13.71 | 120414 | 148459 4 | 32:59.35 | 9:10.74 | 148460 | 189783 5 | 42:10.34 | 16:34.08 | 189784 | 264341 6 | 58:44.42 | 3:50.14 | 264342 | 281605 7 | 62:34.56 | 3:26.32 | 281606 | 297087 8 | 66:01.13 | 4:21.73 | 297088 | 316735 9 | 70:23.11 | 8:45.43 | 316736 | 356153
Range status and errors
Selected range
Filename F:\Music\Scherchen conducts Tchaikovsky, Berg\CD.wav
Peak level 79.9 % Extraction speed 5.1 X Range quality 100.0 % Test CRC 804FA3D5 Copy CRC 804FA3D5 Copy OK
No errors occurred
AccurateRip summary
Track 1 accurately ripped (confidence 2) [8BE3F44A] (AR v2)Track 2 accurately ripped (confidence 2) [6612AE19] (AR v2)Track 3 accurately ripped (confidence 2) [7BB7E49E] (AR v2)Track 4 accurately ripped (confidence 2) [B8892F16] (AR v2)Track 5 accurately ripped (confidence 2) [0CE19AC9] (AR v2)Track 6 accurately ripped (confidence 2) [98E75DC5] (AR v2)Track 7 accurately ripped (confidence 2) [455DD8DB] (AR v2)Track 8 accurately ripped (confidence 2) [4EFA932A] (AR v2)Track 9 accurately ripped (confidence 2) [9E42856B] (AR v2)
All tracks accurately ripped
End of status report
---- CUETools DB Plugin V2.1.4
[CTDB TOCID: 3jY5JtqjKuN46Wx_d2IvYUXxZ0o-] foundSubmit result: 3jY5JtqjKuN46Wx_d2IvYUXxZ0o- has been confirmedTrack | CTDB Status 1 | (1/1) Accurately ripped 2 | (1/1) Accurately ripped 3 | (1/1) Accurately ripped 4 | (1/1) Accurately ripped 5 | (1/1) Accurately ripped 6 | (1/1) Accurately ripped 7 | (1/1) Accurately ripped 8 | (1/1) Accurately ripped 9 | (1/1) Accurately ripped
==== Log checksum CB58CCC27309EFE4E0C706CADAFD78F9B88FE1CC5D5385D4528407E897B588A4 ====

Содержание индексной карты (.CUE)

REM GENRE ClassicalREM DATE 2003REM DISCID 80128C09REM COMMENT "ExactAudioCopy v1.0b4"PERFORMER "Hermann Scherchen"TITLE "Scherchen dirige Tchaikovsky, Berg"FILE "CD.flac" WAVE TRACK 01 AUDIO TITLE "P.Tchaikovsky - Symphony No.4: I. Andante sostenuto - Moderato con anima" PERFORMER "Wiener Staatsopernorchester - Hermann Scherchen" INDEX 01 00:00:00 TRACK 02 AUDIO TITLE "II. Andantino in modo di canzona" PERFORMER "Wiener Staatsopernorchester - Hermann Scherchen" INDEX 01 18:53:50 TRACK 03 AUDIO TITLE "III. Scherzo (Allegro)" PERFORMER "Wiener Staatsopernorchester - Hermann Scherchen" INDEX 01 26:45:39 TRACK 04 AUDIO TITLE "IV. Finale (Allegro con fuoco)" PERFORMER "Wiener Staatsopernorchester - Hermann Scherchen" INDEX 01 32:59:35 TRACK 05 AUDIO TITLE "A.Berg - Lulu suite: I. Rondo (Andante und Hymne)" PERFORMER "Sinfonieorchester des Bayerischen Rundfunks - Hermann Scherchen" INDEX 01 42:10:34 TRACK 06 AUDIO TITLE "II. Ostinato (Allegro)" PERFORMER "Sinfonieorchester des Bayerischen Rundfunks - Hermann Scherchen" INDEX 01 58:44:42 TRACK 07 AUDIO TITLE "III. Lied der Lulu (Comodo)" PERFORMER "Sinfonieorchester des Bayerischen Rundfunks - Hermann Scherchen" INDEX 01 62:34:56 TRACK 08 AUDIO TITLE "IV. Variationen (Moderato)" PERFORMER "Sinfonieorchester des Bayerischen Rundfunks - Hermann Scherchen" INDEX 01 66:01:13 TRACK 09 AUDIO TITLE "V. Adagio (Sostenuto, Lento, Grave)" PERFORMER "Sinfonieorchester des Bayerischen Rundfunks - Hermann Scherchen" INDEX 01 70:23:11
Доп. информация: Такой душераздирающей сюиты "Лулу" я ещё не слышал.



Показать сообщения:    

Текущее время: 08-Дек 19:10

Часовой пояс: UTC + 3


Вы не можете начинать темы
Вы не можете отвечать на сообщения
Вы не можете редактировать свои сообщения
Вы не можете удалять свои сообщения
Вы не можете голосовать в опросах
Вы не можете прикреплять файлы к сообщениям
Вы не можете скачивать файлы