(Classical, Orchestral) Джоаккино Россини / Gioachino Rossini: Discoveries [Rare Excerpts and World Premiere Recordings] (Riccardo Chailly; Michele Pertusi, Ildar Abdrazakov, Laura Giordano) - 2002, FLAC (image+.cue), lossless


 

[Цитировать]

Gioachino Rossini: Discoveries [Rare Excerpts and World Premiere Recordings] (Riccardo Chailly; Michele Pertusi, Ildar Abdrazakov, Laura Giordano)
Жанр: Classical, Orchestral
Страна-производитель диска: Германия
Год издания диска: 2002
Издатель (лейбл): DECCA
Дата записи: 2001
Аудиокодек: FLAC
Тип рипа: image+.cue
Битрейт аудио: lossless
Продолжительность: 70:23
Источник: OdeonMusico
Наличие сканов в содержимом раздачи: да
Послушать Онлайн
Исполнители:
Ildar Abdrazakov - baritone (4, 11),
Michele Pertusi - baritone (8, 10),
Laura Giordano - soprano (10),
Nelson Calzi - fortepiano (8).
Riccardo Chailly - Conductor,
Coro di Milano Giuseppe Verdi,
Orchestra Sinfonica di Milano Giuseppe Verdi.
Recorded at Auditorium di Milano, 2-8 August, 2001.

Лог создания рипа

Exact Audio Copy V1.0 beta 3 from 29. August 2011
EAC extraction logfile from 13. April 2014, 22:24
Riccardo Chailly / Rossini Discoveries - Riccardo Chailly
Used drive : TSSTcorpCDDVDW SH-222BB Adapter: 2 ID: 1
Read mode : SecureUtilize accurate stream : YesDefeat audio cache : YesMake use of C2 pointers : No
Read offset correction : 6Overread into Lead-In and Lead-Out : NoFill up missing offset samples with silence : YesDelete leading and trailing silent blocks : NoNull samples used in CRC calculations : YesUsed interface : Native Win32 interface for Win NT & 2000
Used output format : User Defined EncoderSelected bitrate : 896 kBit/sQuality : HighAdd ID3 tag : NoCommand line compressor : C:\Program Files\Exact Audio Copy\FLAC\FLAC.EXEAdditional command line options : -8 -V -T "TITLE=%title%" -T "ARTIST=%artist%" -T "ALBUMARTIST=%albumartist%" -T "ALBUM=%albumtitle%" -T "DATE=%year%" -T "TRACKNUMBER=%tracknr%" -T "TRACKTOTAL=%numtracks%" -T "GENRE=%genre%" -T "COMMENT=%comment%" -T "PERFORMER=%albuminterpret%" -T "COMPOSER=%composer%" %source% -o %dest%
TOC of the extracted CD
Track | Start | Length | Start sector | End sector --------------------------------------------------------- 1 | 0:00.00 | 6:55.28 | 0 | 31152 2 | 6:55.28 | 4:30.69 | 31153 | 51471 3 | 11:26.22 | 4:20.60 | 51472 | 71031 4 | 15:47.07 | 9:02.67 | 71032 | 111748 5 | 24:49.74 | 5:05.59 | 111749 | 134682 6 | 29:55.58 | 7:49.65 | 134683 | 169922 7 | 37:45.48 | 3:05.74 | 169923 | 183871 8 | 40:51.47 | 6:35.08 | 183872 | 213504 9 | 47:26.55 | 7:50.14 | 213505 | 248768 10 | 55:16.69 | 6:17.03 | 248769 | 277046 11 | 61:33.72 | 8:46.28 | 277047 | 316524
Range status and errors
Selected range
Filename E:\3000\[3796] Rossini Discoveries – Riccardo Chailly\Rossini Discoveries - Riccardo Chailly.wav
Peak level 100.0 % Extraction speed 7.3 X Range quality 100.0 % Test CRC 3AEE05C2 Copy CRC 3AEE05C2 Copy OK
No errors occurred
AccurateRip summary
Track 1 accurately ripped (confidence 4) [84811C44] (AR v2)Track 2 accurately ripped (confidence 4) [52E0D151] (AR v2)Track 3 accurately ripped (confidence 4) [86826C20] (AR v2)Track 4 accurately ripped (confidence 4) [27A4C95A] (AR v2)Track 5 accurately ripped (confidence 4) [63C1649F] (AR v2)Track 6 accurately ripped (confidence 4) [C05C3B7B] (AR v2)Track 7 accurately ripped (confidence 4) [DD567273] (AR v2)Track 8 accurately ripped (confidence 4) [95A82BC7] (AR v2)Track 9 accurately ripped (confidence 4) [C1F18271] (AR v2)Track 10 accurately ripped (confidence 4) [2E85490A] (AR v2)Track 11 accurately ripped (confidence 3) [B9605FB0] (AR v2)
All tracks accurately ripped
End of status report
==== Log checksum 087E02F656D61FC6DB6B160D7E9586468DBA53E2C1AFD1D75CD861C0DC3CC302 ====

Содержание индексной карты (.CUE)

REM GENRE ClassicalREM DATE 2002REM DISCID BC107C0BREM COMMENT "ExactAudioCopy v1.0b3"PERFORMER "Riccardo Chailly"TITLE "Rossini Discoveries - Riccardo Chailly"FILE "Rossini Discoveries - Riccardo Chailly.flac" WAVE TRACK 01 AUDIO TITLE "Robert Bruce: Ouverture" PERFORMER "Riccardo Chailly" ISRC GBBBB0103201 INDEX 01 00:00:00 TRACK 02 AUDIO TITLE "Le Chant des Titans" PERFORMER "Riccardo Chailly" ISRC GBBBB0103202 INDEX 00 06:46:38 INDEX 01 06:55:28 TRACK 03 AUDIO TITLE "Grande Fanfare (Le rendez-vous de chasse)" PERFORMER "Riccardo Chailly" ISRC GBBBB0103203 INDEX 00 11:18:00 INDEX 01 11:26:22 TRACK 04 AUDIO TITLE "Moise et Pharaon: Ouverture et Introduction" PERFORMER "Riccardo Chailly" ISRC GBBBB0103204 INDEX 00 15:41:16 INDEX 01 15:47:07 TRACK 05 AUDIO TITLE "Guillaume Tell: Final du divertissement" PERFORMER "Riccardo Chailly" ISRC GBBBB0103205 INDEX 00 24:43:27 INDEX 01 24:49:74 TRACK 06 AUDIO TITLE "Guillaume Tell: Pas de deux" PERFORMER "Riccardo Chailly" ISRC GBBBB0103206 INDEX 00 29:52:54 INDEX 01 29:55:58 TRACK 07 AUDIO TITLE "Le Siege de Corinthe: Ballabile - Galop" PERFORMER "Riccardo Chailly" ISRC GBBBB0103207 INDEX 00 37:40:52 INDEX 01 37:45:48 TRACK 08 AUDIO TITLE "Inno alla pace: 'E foriera la Pace'" PERFORMER "Riccardo Chailly" ISRC GBBBB0103208 INDEX 00 40:43:44 INDEX 01 40:51:47 TRACK 09 AUDIO TITLE "Ermione: Sinfonia" PERFORMER "Riccardo Chailly" ISRC GBBBB0103209 INDEX 00 47:19:72 INDEX 01 47:26:55 TRACK 10 AUDIO TITLE "Hymne: 'De l'Italie et de la France'" PERFORMER "Riccardo Chailly" ISRC GBBBB0103210 INDEX 00 55:11:68 INDEX 01 55:16:69 TRACK 11 AUDIO TITLE "Hymne a Napoleon III et a son Vaillant Peuple" PERFORMER "Riccardo Chailly" ISRC GBBBB0103211 INDEX 00 61:29:68 INDEX 01 61:33:72

Треклист

1. Robert Bruce: Ouverture
2. Le Chant des Titans
3. Grande Fanfare (Le rendez-vous de chasse)
4. Moise et Pharaon: Ouverture et Introduction
5. Guillaume Tell: Final du divertissement
6. Guillaume Tell: Pas de deux
7. Le Siege de Corinthe: Ballabile - Galop
8. Inno alla pace: "E foriera la Pace"
9. Ermione: Sinfonia
10. Hymne: "De l'Italie et de la France"
11. Hymne a Napoleon III et a son Vaillant Peuple



Показать сообщения:    

Текущее время: 09-Дек 06:58

Часовой пояс: UTC + 3


Вы не можете начинать темы
Вы не можете отвечать на сообщения
Вы не можете редактировать свои сообщения
Вы не можете удалять свои сообщения
Вы не можете голосовать в опросах
Вы не можете прикреплять файлы к сообщениям
Вы не можете скачивать файлы