(Classical) Дмитрий Шостакович - Симфония №8, соч.65 & Александр Скрябин - Поэма экстаза, соч.54 (Евгений Мравинский) - 2015, FLAC (image+.cue) lossless


 

[Цитировать]

Yevgeny Mravinsky - Shostakovich & Scriabin
Жанр: Classical
Страна-производитель диска: Austria
Год издания диска: 2015
Издатель (лейбл): Praga Digitals
Номер по каталогу: 350 120
Дата записи: 12.II.1961 (Шостакович) & 22.XII.1958 (Скрябин)
Аудиокодек: FLAC
Тип рипа: image+.cue
Битрейт аудио: lossless
Продолжительность: 1:19'00"
Источник: собственный рип
Наличие сканов в содержимом раздачи: да
Треклист:
Дмитрий Шостакович - Симфония №8, соч.65
1. I. Adagio
2. II. Allegretto
3. III. Allegro non troppo
4. IV. Largo
5. V. Allegretto
Александр Скрябин
6. Le Poeme de l'Extase, соч.54
Исполнители:
ЗКР Академический симфонический оркестр Ленинградской государственной филармонии
Евгений Мравинский
-

Лог создания рипа

Exact Audio Copy V1.0 beta 4 from 7. December 2014
EAC extraction logfile from 15. April 2015, 23:05
Yevgeny Mravinsky / Shostakovich & Scriabin
Used drive : TSSTcorpDVDWBD TS-LB23A Adapter: 1 ID: 0
Read mode : SecureUtilize accurate stream : YesDefeat audio cache : YesMake use of C2 pointers : No
Read offset correction : 6Overread into Lead-In and Lead-Out : NoFill up missing offset samples with silence : YesDelete leading and trailing silent blocks : NoNull samples used in CRC calculations : YesUsed interface : Native Win32 interface for Win NT & 2000
Used output format : User Defined EncoderSelected bitrate : 128 kBit/sQuality : HighAdd ID3 tag : YesCommand line compressor : C:\Program Files (x86)\Exact Audio Copy\Flac\flac.exeAdditional command line options : -T "COMMENT=Ripped by GFox" -V -8 %source%
TOC of the extracted CD
Track | Start | Length | Start sector | End sector --------------------------------------------------------- 1 | 0:00.00 | 24:36.35 | 0 | 110734 2 | 24:36.35 | 6:02.67 | 110735 | 137951 3 | 30:39.27 | 6:07.43 | 137952 | 165519 4 | 36:46.70 | 9:22.34 | 165520 | 207703 5 | 46:09.29 | 12:42.00 | 207704 | 264853 6 | 58:51.29 | 20:08.46 | 264854 | 355499
Range status and errors
Selected range
Filename D:\Downloads\Yevgeny Mravinsky - Shostakovich & Scriabin.wav
Peak level 93.6 % Extraction speed 1.7 X Range quality 99.9 % Test CRC A405BE10 Copy CRC A405BE10 Copy OK
No errors occurred
AccurateRip summary
Track 1 not present in databaseTrack 2 not present in databaseTrack 3 not present in databaseTrack 4 not present in databaseTrack 5 not present in databaseTrack 6 not present in database
None of the tracks are present in the AccurateRip database
End of status report
==== Log checksum 537DE7D55A1DD23AB9ADB45418B28E334168DB22B7511F78CD50B9F6BBBDA3DA ====
-



Показать сообщения:    

Текущее время: 07-Дек 21:20

Часовой пояс: UTC + 3


Вы не можете начинать темы
Вы не можете отвечать на сообщения
Вы не можете редактировать свои сообщения
Вы не можете удалять свои сообщения
Вы не можете голосовать в опросах
Вы не можете прикреплять файлы к сообщениям
Вы не можете скачивать файлы