(Classical) Чайковский, Бородин, Глинка – Great Balletmusic - 1995, FLAC (image+.cue) lossless


 

[Цитировать]

Чайковсковский / Бородин / Глинка / Great Balletmusic 2CD / RUSSIAN MASTERWORKS
Жанр: Classical
Страна-производитель диска: Czech
Год издания диска: 1995
Издатель (лейбл): Prestige Classics
Номер по каталогу: CD 1930.2080-2/CD 1930.2081-2
Аудиокодек: FLAC
Тип рипа: image+.cue
Битрейт аудио: lossless
Продолжительность: 58:54 / 64:57
Источник: собственный рип
Наличие сканов в содержимом раздачи: да
Треклист:
CD 1
PETER ILJITSCH TSCHAIKOWSKY (1840 • 1893)
Schwanensee / Swan lake, Op. 20 30:36
1 1. Eroffiiungsszene / Opening Scene 2:32
2 2. Walzer/WaltzAs-Dur/inA-flat 7:20
3 3. Tanz der kleinen Schwдne / Dances of the Cygnets 1:32
4 4. Szene -Schwanenthema/ Scene -Swantheme 6:33
5 5. Danse Hongroise / Dance Hongroise (Czardas] 3:10
6 6. Danse Espagnole/ Spanish Dance 2:32
7 7. Danse Napolitaine/ Neapolitan Dance 2:15
8 8. Mazurka 4:21
Der Nussknacker / The Nutcracker, Suite from the Ballet, Op. 71 a
9 1. Ouverture Miniature/Miniature Overture 3:36
10 2. Marsch/March 2:24
11 3. Tanz der Zuckerfee / Dance of the Sugar Plum Fairy 1:53
12 4. Russischer Tanz /Russian Dance Trepak 1:11
13 5. Arabischer Tanz / Arabian Dance 3:38
14 6. Chinesischer Tanz / Chinese Dance 1:09
15 7. Tanz der Rohrnoten / Dance of the Reed Flutes 2:20
16 8. Blumenwalzer/Waltz of the Flowers 7:09
Radio Bratislava Symphony Orchestra, Kazushi Ono
V. Simdsko - Violin / J. Sikora - Violoncello / Cello / J, Jaraskova - Harfe / Harp
17 Polonaise aus der Oper / from the Opera Eugen Onegin 4:29
Staatliche Philharmonie Kosice / State Philharmony of Kosice, Christian Ehwald
TOTAL TIME 58:54
CD 2
ALEXANDER BORODIN (1833-1887)
1 Ouverture Prinz Igor / Overture Prince Igor 11:24
MICHAIL IVANOVICH GLINKA (1804-1857)
2 Ouverture / Overture Ruslan S Ludmilla 4:54
Slowakische Philharmonie / Slovak Philharmonic Orchesta, Vladimir Verbicky
PETER IIJITSCH TSCHAIKOWSKY (1840 -1893)
3 FrancescadaRimini,Op.32 25:44
Radio Bratislava Symphony Orchestra, Ladislav Slovak
4 Capriccio Italien / Italian Capriccio, Op. 45 14:50
Slowakische Philharmonie / Slovak Philharmonic Orchestra, Vaclav Smetacek
5 Walzer aus Akt II von Eugen Onegin
Waltz from Act II of the Opera Eugen Onegin 7:37
Radio Bratislava Symphony Orchestra, Pavol Bagin
TOTAL TIME 64:57

Лог создания рипа

Exact Audio Copy V1.0 beta 6 from 9. April 2015
Отчёт EAC об извлечении, выполненном 15. апреля 2015, 11:31
Radio Bratislava Symphony Orchestra / Tschaikowsky, Borodin, Glinka / Russian Masterworks (Disc 1)
Дисковод: HL-DT-STDVDRAM GSA-H12N Adapter: 1 ID: 0
Режим чтения : ДостоверностьИспользование точного потока : ДаОтключение кэша аудио : ДаИспользование указателей C2 : Нет
Коррекция смещения при чтении : 667Способность читать области Lead-in и Lead-out : НетЗаполнение пропущенных сэмплов тишиной : ДаУдаление блоков с тишиной в начале и конце : НетПри вычислениях CRC использовались нулевые сэмплы : ДаИнтерфейс : Встроенный Win32-интерфейс для Win NT/2000
Выходной формат : Пользовательский кодировщикВыбранный битрейт : 1024 kBit/sКачество : ВысокийДобавление ID3-тега : ДаУтилита сжатия : C:\Program Files\Exact Audio Copy\flac.exeДополнительные параметры : -8 -V -T "ARTIST=%artist%" -T "TITLE=%title%" -T "ALBUM=%albumtitle%" -T "DATE=%year%" -T "TRACKNUMBER=%tracknr%" -T "GENRE=%genre%" -T "COMMENT=%comment%" -T "BAND=%albuminterpret%" -T "COMPOSER=%composer%" %haslyrics%--tag-from-file=LYRICS="%lyricsfile%"%haslyrics% -T "TOTALTRACKS=%numtracks%" %hascover%--picture="%coverfile%"%hascover% %source% -o %dest%
TOC извлечённого CD
Трек | Старт | Длительность | Начальный сектор | Конечный сектор --------------------------------------------------------------------- 1 | 0:00.32 | 2:33.38 | 32 | 11544 2 | 2:33.70 | 7:21.65 | 11545 | 44684 3 | 9:55.60 | 1:35.72 | 44685 | 51881 4 | 11:31.57 | 6:35.38 | 51882 | 81544 5 | 18:07.20 | 3:13.37 | 81545 | 96056 6 | 21:20.57 | 2:35.23 | 96057 | 107704 7 | 23:56.05 | 2:18.52 | 107705 | 118106 8 | 26:14.57 | 4:24.68 | 118107 | 137974 9 | 30:39.50 | 3:38.70 | 137975 | 154394 10 | 34:18.45 | 2:25.05 | 154395 | 165274 11 | 36:43.50 | 1:55.70 | 165275 | 173969 12 | 38:39.45 | 1:14.05 | 173970 | 179524 13 | 39:53.50 | 3:41.20 | 179525 | 196119 14 | 43:34.70 | 1:12.02 | 196120 | 201521 15 | 44:46.72 | 2:22.50 | 201522 | 212221 16 | 47:09.47 | 7:14.50 | 212222 | 244821 17 | 54:24.22 | 4:30.63 | 244822 | 265134
Характеристики диапазона извлечения и сообщения об ошибках
Выбранный диапазон
Имя файла C:\Documents and Settings\Андрей\Рабочий стол\1\Radio Bratislava Symphony Orchestra - Tschaikowsky, Borodin, Glinka , Russian Masterworks (Disc 1).wav
Пиковый уровень 85.5 % Скорость извлечения 4.6 X Качество диапазона 99.9 % CRC теста F31D35B2 CRC копии F31D35B2 Копирование... OK
Ошибок не произошло
AccurateRip: сводка
Трек 1 : извлечено точно (доверие 5) [4C398837] (AR v1)Трек 2 : извлечено точно (доверие 5) [41543E7D] (AR v1)Трек 3 : извлечено точно (доверие 5) [5AB4ED42] (AR v1)Трек 4 : извлечено точно (доверие 5) [3004DBCB] (AR v1)Трек 5 : извлечено точно (доверие 5) [8F0F1E44] (AR v1)Трек 6 : извлечено точно (доверие 5) [52C09CCE] (AR v1)Трек 7 : извлечено точно (доверие 5) [2AD00FB5] (AR v1)Трек 8 : извлечено точно (доверие 5) [2A0BB7BC] (AR v1)Трек 9 : извлечено точно (доверие 5) [FA7966D0] (AR v1)Трек 10 : извлечено точно (доверие 5) [022719C8] (AR v1)Трек 11 : извлечено точно (доверие 5) [F5379351] (AR v1)Трек 12 : извлечено точно (доверие 5) [2B1A79C8] (AR v1)Трек 13 : извлечено точно (доверие 5) [D864864D] (AR v1)Трек 14 : извлечено точно (доверие 5) [7CCE0012] (AR v1)Трек 15 : извлечено точно (доверие 5) [D7B380C5] (AR v1)Трек 16 : извлечено точно (доверие 5) [FCD2D0FC] (AR v1)Трек 17 : извлечено точно (доверие 5) [5DB921DC] (AR v1)
Все треки извлечены точно
Конец отчёта
==== Контрольная сумма отчёта E07891E93E1B0165B15852692E1E88B11A5034DACF2F99D917078A4300418AFC ====
Exact Audio Copy V1.0 beta 6 from 9. April 2015
Отчёт EAC об извлечении, выполненном 15. апреля 2015, 10:59
Tschaikowsky, Borodin, Glinka / Russian Masterworks (Disc 2)
Дисковод: HL-DT-STDVDRAM GSA-H12N Adapter: 1 ID: 0
Режим чтения : ДостоверностьИспользование точного потока : ДаОтключение кэша аудио : ДаИспользование указателей C2 : Нет
Коррекция смещения при чтении : 667Способность читать области Lead-in и Lead-out : НетЗаполнение пропущенных сэмплов тишиной : ДаУдаление блоков с тишиной в начале и конце : НетПри вычислениях CRC использовались нулевые сэмплы : ДаИнтерфейс : Встроенный Win32-интерфейс для Win NT/2000
Выходной формат : Пользовательский кодировщикВыбранный битрейт : 1024 kBit/sКачество : ВысокийДобавление ID3-тега : ДаУтилита сжатия : C:\Program Files\Exact Audio Copy\flac.exeДополнительные параметры : -8 -V -T "ARTIST=%artist%" -T "TITLE=%title%" -T "ALBUM=%albumtitle%" -T "DATE=%year%" -T "TRACKNUMBER=%tracknr%" -T "GENRE=%genre%" -T "COMMENT=%comment%" -T "BAND=%albuminterpret%" -T "COMPOSER=%composer%" %haslyrics%--tag-from-file=LYRICS="%lyricsfile%"%haslyrics% -T "TOTALTRACKS=%numtracks%" %hascover%--picture="%coverfile%"%hascover% %source% -o %dest%
TOC извлечённого CD
Трек | Старт | Длительность | Начальный сектор | Конечный сектор --------------------------------------------------------------------- 1 | 0:00.32 | 11:33.30 | 32 | 52036 2 | 11:33.62 | 5:00.58 | 52037 | 74594 3 | 16:34.45 | 25:47.52 | 74595 | 190671 4 | 42:22.22 | 14:57.68 | 190672 | 258014 5 | 57:20.15 | 7:37.72 | 258015 | 292361
Характеристики диапазона извлечения и сообщения об ошибках
Выбранный диапазон
Имя файла C:\Documents and Settings\Андрей\Рабочий стол\2\Tschaikowsky, Borodin, Glinka - Russian Masterworks (Disc 2).wav
Подозрительная позиция 0:07:00 - 0:07:01 Подозрительная позиция 0:07:04
Пиковый уровень 100.0 % Скорость извлечения 3.0 X Качество диапазона 99.8 % CRC теста 8497F1F0 CRC копии CF4603A1 Копирование завершено
Были ошибки
AccurateRip: сводка
Трек 1 точность не определена (достоверность 4) [0965696A], AccurateRip вернул [B0EED13A] (AR v2)Трек 2 : извлечено точно (доверие 4) [CA1E387D] (AR v1)Трек 3 : извлечено точно (доверие 4) [AA7ABF60] (AR v1)Трек 4 : извлечено точно (доверие 4) [60FF0DFF] (AR v1)Трек 5 : извлечено точно (доверие 4) [E9ED0C9D] (AR v1)
4 трек(и) скопированы точно 1 трек(и) не удалось проверить на точность
Некоторые треки не прошли проверку на точность
Конец отчёта
==== Контрольная сумма отчёта D744A17A289DA0F3F5546DA9D146C40028635AE4BFA877FE932128A059FAAD27 ====

Содержание индексной карты (.CUE)

Лог проверки качества

AUDIOCHECKER v2.0 beta (build 457) - by Dester - opdester@freemail.hu~~~~~~~~~~~~~~~~~~~~~~~~~~~~~~~~~~-=== НЕ РЕДАКТИРУЙТЕ ЭТОТ ФАЙЛ! ===-
Путь: ...\1CD
1 -=- Radio Bratislava Symphony Orchestra - Tschaikowsky, Borodin, Glinka , Russian Masterworks (Disc 1).flac -=- CDDA (100%)
42023380
AUDIOCHECKER v2.0 beta (build 457) - by Dester - opdester@freemail.hu~~~~~~~~~~~~~~~~~~~~~~~~~~~~~~~~~~-=== НЕ РЕДАКТИРУЙТЕ ЭТОТ ФАЙЛ! ===-
Путь: ...\2CD
1 -=- Tschaikowsky, Borodin, Glinka - Russian Masterworks (Disc 2).flac -=- CDDA (99%)
67191284



Показать сообщения:    

Текущее время: 08-Дек 01:17

Часовой пояс: UTC + 3


Вы не можете начинать темы
Вы не можете отвечать на сообщения
Вы не можете редактировать свои сообщения
Вы не можете удалять свои сообщения
Вы не можете голосовать в опросах
Вы не можете прикреплять файлы к сообщениям
Вы не можете скачивать файлы