(Classical / Orchestral) Рахманинов - Симфонические танцы • Остров мёртвых • Утёс / Rachmaninov (Rachmaninoff) - Symphonic Dances • The Isle ot the Dead • The Rock (Royal Stockholm Philharmonic Orchestra, Andrew Davis) - 1997, FLAC (tracks+.cue) loss


 

[Цитировать]

Сергей Рахманинов | Sergei Rachmaninov
(1873–1943)



Симфонические танцы | Остров мёртвых | Утёс
Symphonic Dances | The Isle ot the Dead | The Rock


Kungliga Filharmonikerna (Royal Stockholm Philharmonic Orchestra)
Andrew Davis conductor


Жанр: Classical / Orchestral
Дата и место записи: Stockholm Concert Hall, January 1997
Формат записи: DDD, Stereo
Год издания диска: 1997
Издатель (лейбл): Finlandia Records
Номер по каталогу: 0630-19091-2
Аудиокодек: FLAC
Тип рипа: tracks+.cue
Битрейт аудио: lossless
Продолжительность: 1:30:38
Наличие сканов в содержимом раздачи: да
Источник: What.CD
Релизёр: uwillc


Tracklist / Треклист
Симфонические танцы (Symphonic Dances), Op. 45 - 34:59
I. Non allegro. — Lento - 12:16
  • II. Andante con moto (Tempo di Valse) - 9:03
  • III. Lento assai. — Allegro vivace - 13:40Остров мёртвых (The Isle ot the Dead), Op. 29 - 21:40
  • Утёс (The Rock), Op. 7 - 14:00

    -

    EAC log / Отчёт EAC

    Exact Audio Copy V1.0 beta 3 from 29. August 2011
    EAC extraction logfile from 12. April 2015, 11:19
    Royal Stockholm Philmarmonic Orchestra / The Isle of the Dead
    Used drive : PBDS CD-ROM DH-48N1S Adapter: 2 ID: 0
    Read mode : SecureUtilize accurate stream : YesDefeat audio cache : YesMake use of C2 pointers : No
    Read offset correction : 6Overread into Lead-In and Lead-Out : NoFill up missing offset samples with silence : YesDelete leading and trailing silent blocks : NoNull samples used in CRC calculations : YesUsed interface : Native Win32 interface for Win NT & 2000Gap handling : Appended to previous track
    Used output format : User Defined EncoderSelected bitrate : 1024 kBit/sQuality : HighAdd ID3 tag : NoCommand line compressor : D:\Program Files\Exact Audio Copy\Flac\flac.exeAdditional command line options : -8 -V -T "ARTIST=%artist%" -T "TITLE=%title%" -T "ALBUM=%albumtitle%" -T "DATE=%year%" -T "TRACKNUMBER=%tracknr%" -T "GENRE=%genre%" -T "PERFORMER=%albuminterpret%" -T "COMPOSER=%composer%" %haslyrics%--tag-from-file=LYRICS="%lyricsfile%"%haslyrics% -T "ALBUMARTIST=%albumartist%" -T "DISCNUMBER=%cdnumber%" -T "TOTALDISCS=%totalcds%" -T "TOTALTRACKS=%numtracks%" -T "COMMENT=%comment%" %source% -o %dest%
    TOC of the extracted CD
    Track | Start | Length | Start sector | End sector --------------------------------------------------------- 1 | 0:00.00 | 12:16.05 | 0 | 55204 2 | 12:16.05 | 9:02.52 | 55205 | 95906 3 | 21:18.57 | 13:40.03 | 95907 | 157409 4 | 34:58.60 | 21:39.42 | 157410 | 254876 5 | 56:38.27 | 13:59.45 | 254877 | 317846
    Track 1
    Filename D:\EAC Raw Rips\Rachmaninov - The Isle of The Dead - Royal Stockholm Phil\01 Symphonic Dances, Op. 45, I Non allegro.wav
    Pre-gap length 0:00:02.00
    Peak level 98.8 % Extraction speed 4.5 X Track quality 99.9 % Test CRC B0E72191 Copy CRC B0E72191 Accurately ripped (confidence 3) [7C8CA3D1] (AR v2) Copy OK
    Track 2
    Filename D:\EAC Raw Rips\Rachmaninov - The Isle of The Dead - Royal Stockholm Phil\02 Symphonic Dances, Op. 45, II Andante con moto (Tempo di valse).wav
    Peak level 98.8 % Extraction speed 5.7 X Track quality 100.0 % Test CRC DD3A9439 Copy CRC DD3A9439 Accurately ripped (confidence 3) [4C3DB6E9] (AR v2) Copy OK
    Track 3
    Filename D:\EAC Raw Rips\Rachmaninov - The Isle of The Dead - Royal Stockholm Phil\03 Symphonic Dances, Op. 45, III Lento assai.wav
    Peak level 98.8 % Extraction speed 6.2 X Track quality 99.9 % Test CRC 26FE53E5 Copy CRC 26FE53E5 Accurately ripped (confidence 3) [9C14F5D5] (AR v2) Copy OK
    Track 4
    Filename D:\EAC Raw Rips\Rachmaninov - The Isle of The Dead - Royal Stockholm Phil\04 The Isle ot the Dead, Symphonic poem, Op. 29.wav
    Pre-gap length 0:00:11.53
    Peak level 83.1 % Extraction speed 7.9 X Track quality 100.0 % Test CRC 96176012 Copy CRC 96176012 Accurately ripped (confidence 3) [529942D8] (AR v2) Copy OK
    Track 5
    Filename D:\EAC Raw Rips\Rachmaninov - The Isle of The Dead - Royal Stockholm Phil\05 The Rock, Fantasy, Op. 7.wav
    Pre-gap length 0:00:11.82
    Peak level 88.6 % Extraction speed 6.3 X Track quality 99.9 % Test CRC FB95113C Copy CRC FB95113C Accurately ripped (confidence 3) [BCD8EFC5] (AR v2) Copy OK
    All tracks accurately ripped
    No errors occurred
    End of status report
    ==== Log checksum 3CED2A806C3DB5D0B190B44D0586F323728110E2684ECF535E603E1E48F028ED ====

    auCDtect Task Manager log / Отчёт auCDtect Task Manager

    -----------------------
    DON'T MODIFY THIS FILE
    -----------------------
    PERFORMER: auCDtect Task Manager, ver. 1.5.1RC3 build 1.5.1.4Copyright (c) 2008-2010 y-soft. All rights reserved
    ANALYZER: auCDtect: CD records authenticity detector, version 0.8.2Copyright (c) 2004 Oleg Berngardt. All rights reserved.Copyright (c) 2004 Alexander Djourik. All rights reserved.
    FILE: 02 - ''Symphonic Dances'', Op. 45 - II. Andante con moto (Tempo di Valse).flac Size: 33451087 Hash: 5D3AC4BA9AF0E4F2A52E7B7B28A5C435 Accuracy: -m0 Conclusion: MPEG 93% Signature: CE904449D42C4E04D2592AE039B0A386BA4DA51DFILE: 01 - ''Symphonic Dances'', Op. 45 - I. Non allegro. - Lento.flac Size: 45633856 Hash: 6956413BA5BA26942FA7D0CB27CE06F0 Accuracy: -m0 Conclusion: CDDA 92% Signature: 97AEBCC46050A41EA8AA60FA90D86C0F71E60EC9FILE: 05 - ''The Rock'' (fantasy), Op. 7.flac Size: 53086332 Hash: F35A468DF8E5F6CC880F3855B039E9BB Accuracy: -m0 Conclusion: CDDA 92% Signature: 8C1FB76DEE5D6AD483D31E6719B37096936DA24DFILE: 04 - ''The Isle ot the Dead'' (symphonic poem), Op. 29.flac Size: 85457816 Hash: CAA47E5D31EE2BC9B9FE0C4E4D4E4F19 Accuracy: -m0 Conclusion: CDDA 86% Signature: EFA484B2CAA2D7ACF05D88CD2AB950DA2D5D8DCDFILE: 03 - ''Symphonic Dances'', Op. 45 - III. Lento assai. - Allegro vivace.flac Size: 56324328 Hash: BA5C297BA42BA7400FEFB88B5754F62A Accuracy: -m0 Conclusion: CDDA 100% Signature: BF5738324383F38A7D8BAB36A3A3A06A294DD555

    CUETools log / Отчёт CUETools

    [CUETools log; Date: 14.04.2015 13:35:42; Version: 2.1.4][AccurateRip ID: 000d725e-00403a57-29108d05] found.Track [ CRC | V2 ] Status 01 [eb613b58|7c8ca3d1] (2+3/5) Accurately ripped 02 [9f7d3ff9|4c3db6e9] (2+3/5) Accurately ripped 03 [87d90416|9c14f5d5] (2+3/5) Accurately ripped 04 [29fb2bbd|529942d8] (2+3/5) Accurately ripped 05 [b870374a|bcd8efc5] (2+3/5) Accurately rippedOffsetted by -664: 01 [048af5c8] (0/5) No match (V2 was not tested) 02 [3b28cd77] (0/5) No match (V2 was not tested) 03 [84f99630] (0/5) No match (V2 was not tested) 04 [cee26eb5] (0/5) No match (V2 was not tested) 05 [9ba1492a] (0/5) No match (V2 was not tested)
    Track Peak [ CRC32 ] [W/O NULL] [ LOG ] -- 98,8 [29A4AF59] [89B074A5] 01 98,8 [B0E72191] [001EFFC2] CRC32 02 98,8 [DD3A9439] [D4D81C35] CRC32 03 98,8 [26FE53E5] [BACD1B76] CRC32 04 83,1 [96176012] [80A27496] CRC32 05 88,6 [FB95113C] [462B847B] CRC32

    CUE sheet

    TITLE "Sergei Rachmaninov: The Isle of the Dead"PERFORMER "Andrew Davis"REM GENRE ClassicalREM DISCID 29108D05REM COMMENT "ExactAudioCopy v1.0b3"CATALOG 0630190910200FILE "01 - ''Symphonic Dances'', Op. 45 - I. Non allegro. - Lento.flac" WAVE TRACK 01 AUDIO TITLE "«Symphonic Dances», Op. 45: I. Non allegro. — Lento" PERFORMER "Kungliga Filharmonikerna. Andrew Davis, conductor" REM DATE 1997 INDEX 01 00:00:00FILE "02 - ''Symphonic Dances'', Op. 45 - II. Andante con moto (Tempo di Valse).flac" WAVE TRACK 02 AUDIO TITLE "«Symphonic Dances», Op. 45: II. Andante con moto (Tempo di Valse)" PERFORMER "Kungliga Filharmonikerna. Andrew Davis, conductor" REM DATE 1997 INDEX 01 00:00:00FILE "03 - ''Symphonic Dances'', Op. 45 - III. Lento assai. - Allegro vivace.flac" WAVE TRACK 03 AUDIO TITLE "«Symphonic Dances», Op. 45: III. Lento assai. — Allegro vivace" PERFORMER "Kungliga Filharmonikerna. Andrew Davis, conductor" REM DATE 1997 INDEX 01 00:00:00 TRACK 04 AUDIO TITLE "«The Isle ot the Dead» (symphonic poem), Op. 29" PERFORMER "Kungliga Filharmonikerna. Andrew Davis, conductor" REM DATE 1997 INDEX 00 13:28:38FILE "04 - ''The Isle ot the Dead'' (symphonic poem), Op. 29.flac" WAVE INDEX 01 00:00:00 TRACK 05 AUDIO TITLE "«The Rock» (fantasy), Op. 7" PERFORMER "Kungliga Filharmonikerna. Andrew Davis, conductor" REM DATE 1997 INDEX 00 21:27:55FILE "05 - ''The Rock'' (fantasy), Op. 7.flac" WAVE INDEX 01 00:00:00
    -Раздача обновлена 14.04.2015: рип заменён на новый, с логом-



  • Показать сообщения:    

    Текущее время: 04-Дек 13:10

    Часовой пояс: UTC + 3


    Вы не можете начинать темы
    Вы не можете отвечать на сообщения
    Вы не можете редактировать свои сообщения
    Вы не можете удалять свои сообщения
    Вы не можете голосовать в опросах
    Вы не можете прикреплять файлы к сообщениям
    Вы не можете скачивать файлы