(Classical) Edward Elgar - Symphony No.1; Cockaigne - Royal Stockholm Philharmonic Orchestra, Sakari Oramo - 2014, FLAC (image+.cue) lossless


 

[Цитировать]

Edward Elgar - Symphony No.1; Cockaigne - Royal Stockholm Philharmonic Orchestra, Sakari Oramo
Жанр: Classical
Страна-производитель диска: Sweden
Год издания диска: 2014
Издатель (лейбл): BIS
Номер по каталогу: BIS-SACD-1939
Дата записи: 2012, 2013
Аудиокодек: FLAC
Тип рипа: image+.cue
Битрейт аудио: lossless
Продолжительность: 67:17
Источник: собственный рип
Наличие сканов в содержимом раздачи: да
Треклист:
Edward Elgar (1857–1934)
[1]-[4] Symphony No. 1 in A flat major, Op. 55 (1908)
[5] Cockaigne (In London Town), Op. 40 (1901)
Исполнители:
Royal Stockholm Philharmonic Orchestra
Sakari Oramo
conductor

Лог создания рипа

Exact Audio Copy V1.0 beta 3 from 29. August 2011
EAC extraction logfile from 1. April 2015, 1:42
Royal Stockholm Philharmonic Orchestra, Sakari Oramo / Elgar - Symphony No.1; Cockaigne
Used drive : HL-DT-STDVDRAM GU70N Adapter: 0 ID: 0
Read mode : SecureUtilize accurate stream : YesDefeat audio cache : YesMake use of C2 pointers : No
Read offset correction : 48Overread into Lead-In and Lead-Out : NoFill up missing offset samples with silence : YesDelete leading and trailing silent blocks : NoNull samples used in CRC calculations : YesUsed interface : Native Win32 interface for Win NT & 2000
Used output format : User Defined EncoderSelected bitrate : 128 kBit/sQuality : HighAdd ID3 tag : NoCommand line compressor : C:\Program Files (x86)\Exact Audio Copy\Flac\flac.exeAdditional command line options : -V -8 -T "Date=%year%" -T "Genre=%genre%" %source%
TOC of the extracted CD
Track | Start | Length | Start sector | End sector --------------------------------------------------------- 1 | 0:00.00 | 19:34.64 | 0 | 88113 2 | 19:34.64 | 8:17.16 | 88114 | 125404 3 | 27:52.05 | 12:00.05 | 125405 | 179409 4 | 39:52.10 | 12:42.14 | 179410 | 236573 5 | 52:34.24 | 14:42.54 | 236574 | 302777
Range status and errors
Selected range
Filename C:\temp\BIS-SACD-1939 - Elgar - Symphony No.1; Cockaigne\Elgar - Symphony No.1; Cockaigne.wav
Peak level 98.3 % Extraction speed 2.3 X Range quality 100.0 % Test CRC 7907377D Copy CRC 7907377D Copy OK
No errors occurred
AccurateRip summary
Track 1 accurately ripped (confidence 3) [1EC5B675] (AR v2)Track 2 accurately ripped (confidence 3) [F9A8A0D3] (AR v2)Track 3 accurately ripped (confidence 3) [CC527146] (AR v2)Track 4 accurately ripped (confidence 3) [C94241C6] (AR v2)Track 5 accurately ripped (confidence 3) [E9522E18] (AR v2)
All tracks accurately ripped
End of status report
==== Log checksum DE6D01F2EB3A8F2486ABA8AC60AEF805B2B190928235442F97F5A55EA05A08E4 ====



Показать сообщения:    

Текущее время: 09-Дек 10:49

Часовой пояс: UTC + 3


Вы не можете начинать темы
Вы не можете отвечать на сообщения
Вы не можете редактировать свои сообщения
Вы не можете удалять свои сообщения
Вы не можете голосовать в опросах
Вы не можете прикреплять файлы к сообщениям
Вы не можете скачивать файлы