(Classical / Symphony) Gustav Mahler - Symphonie Nr. 6 «Tragische» / Густав Малер - Симфония № 6 «Трагическая» (Cleveland Orchestra, George Szell / Джордж Селл, 1967) - 1991, FLAC (tracks+.cue) lossless


 

[Цитировать]

Gustav Mahler | Густав Малер
(1860–1911)



Symphonie Nr. 6 «Tragische»
Симфония № 6 «Трагическая»


Cleveland Orchestra
George Szell conductor


Жанр: Classical / Symphony
Дата и место записи: Severance Hall, Cleveland, Ohio, October 1967 (live)
Формат записи: ADD, Stereo
Год издания диска: 1991
Издатель (лейбл): Sony
Номер по каталогу: SBK 47654
Аудиокодек: FLAC
Тип рипа: tracks+.cue
Битрейт аудио: lossless
Продолжительность: 1:13:41
Наличие сканов в содержимом раздачи: да
Источник: What.CD
Релизёр: HallsXS


Tracklist / Треклист
Symphonie Nr. 6 a-moll - 1:13:41
I. Allegro energico, ma non troppo - 17:53
  • II. Scherzo: Wuchtig - 13:15
  • III. Andante moderato - 13:35
  • IV. Finale: Allegro moderato. — Allegro energico - 28:58

    -

    EAC log / Отчёт EAC

    Exact Audio Copy V1.0 beta 4 from 7. December 2014
    EAC extraction logfile from 6. April 2015, 11:10
    George Szell, Cleveland Orchestra / 1972 - Mahler - Symphonie No. 6 "Tragische" - Szell, Cleveland Orch.
    Used drive : hp DVD A DS8A8SH Adapter: 1 ID: 0
    Read mode : SecureUtilize accurate stream : YesDefeat audio cache : YesMake use of C2 pointers : No
    Read offset correction : 6Overread into Lead-In and Lead-Out : NoFill up missing offset samples with silence : YesDelete leading and trailing silent blocks : NoNull samples used in CRC calculations : YesUsed interface : Native Win32 interface for Win NT & 2000Gap handling : Appended to previous track
    Used output format : User Defined EncoderSelected bitrate : 1024 kBit/sQuality : HighAdd ID3 tag : NoCommand line compressor : C:\Program Files (x86)\Exact Audio Copy\Flac\flac.exeAdditional command line options : -8 -V -T "ARTIST=%artist%" -T "TITLE=%title%" -T "ALBUM=%albumtitle%" -T "DATE=%year%" -T "TRACKNUMBER=%tracknr%" -T "GENRE=%genre%" -T "PERFORMER=%albuminterpret%" -T "COMPOSER=%composer%" %haslyrics%--tag-from-file=LYRICS="%lyricsfile%"%haslyrics% -T "ALBUMARTIST=%albumartist%" -T "DISCNUMBER=%cdnumber%" -T "TOTALDISCS=%totalcds%" -T "TOTALTRACKS=%numtracks%" -T "COMMENT=%comment%" %source% -o %dest%
    TOC of the extracted CD
    Track | Start | Length | Start sector | End sector --------------------------------------------------------- 1 | 0:00.00 | 17:53.25 | 0 | 80499 2 | 17:53.25 | 13:14.50 | 80500 | 140099 3 | 31:08.00 | 13:35.37 | 140100 | 201261 4 | 44:43.37 | 28:57.63 | 201262 | 331599
    Track 1
    Filename C:\EAC Rips\Gustav Mahler - Symphony No. 6 (1972) [FLAC]\01 - 01 - Allegro energico, ma non troppo. Heftig, aber markig.wav
    Pre-gap length 0:00:02.00
    Peak level 100.0 % Extraction speed 1.6 X Track quality 99.9 % Test CRC 8C55037B Copy CRC 8C55037B Accurately ripped (confidence 30) [A766E0CE] (AR v2) Copy OK
    Track 2
    Filename C:\EAC Rips\Gustav Mahler - Symphony No. 6 (1972) [FLAC]\02 - 02 - Scherzo, Wuchtig.wav
    Pre-gap length 0:00:07.46
    Peak level 80.7 % Extraction speed 2.0 X Track quality 100.0 % Test CRC 73467EDC Copy CRC 73467EDC Accurately ripped (confidence 30) [57FCAFD5] (AR v2) Copy OK
    Track 3
    Filename C:\EAC Rips\Gustav Mahler - Symphony No. 6 (1972) [FLAC]\03 - 03 - Andante moderato.wav
    Pre-gap length 0:00:03.17
    Peak level 46.7 % Extraction speed 2.3 X Track quality 100.0 % Test CRC 44AA308F Copy CRC 44AA308F Accurately ripped (confidence 30) [16EF6786] (AR v2) Copy OK
    Track 4
    Filename C:\EAC Rips\Gustav Mahler - Symphony No. 6 (1972) [FLAC]\04 - 04 - Finale. Allegro moderato - Allegro energico.wav
    Pre-gap length 0:00:04.16
    Peak level 100.0 % Extraction speed 2.8 X Track quality 100.0 % Test CRC 41B18288 Copy CRC 41B18288 Accurately ripped (confidence 28) [1423F11A] (AR v2) Copy OK
    All tracks accurately ripped
    No errors occurred
    End of status report
    ---- CUETools DB Plugin V2.1.4
    [CTDB TOCID: AhT_Senu5V8M2DPf7Eu8fywQTsM-] foundSubmit result: AhT_Senu5V8M2DPf7Eu8fywQTsM- has been confirmedTrack | CTDB Status 1 | (20/21) Accurately ripped 2 | (20/21) Accurately ripped 3 | (20/21) Accurately ripped 4 | (20/21) Accurately ripped
    ==== Log checksum DAF9ADFA474B3EAD5ABB8102994D792FD3DB1634E4C19A09669647DE9D533A14 ====

    auCDtect Task Manager log / Отчёт auCDtect Task Manager

    -----------------------
    DON'T MODIFY THIS FILE
    -----------------------
    PERFORMER: auCDtect Task Manager, ver. 1.5.1RC3 build 1.5.1.4Copyright (c) 2008-2010 y-soft. All rights reserved
    ANALYZER: auCDtect: CD records authenticity detector, version 0.8.2Copyright (c) 2004 Oleg Berngardt. All rights reserved.Copyright (c) 2004 Alexander Djourik. All rights reserved.
    FILE: 03 - Symphonie Nr. 6 a-moll - III. Scherzo. Wuchtig.flac Size: 56331294 Hash: 100B9BB159470B1E1B84A33D6962C7E1 Accuracy: -m0 Conclusion: CDDA 100% Signature: 926C7524483F57675632C6254D25A31FC2223BBFFILE: 02 - Symphonie Nr. 6 a-moll - II. Andante moderato.flac Size: 61630042 Hash: 69277E4CA9DBB02F41CBEBCF6F19132C Accuracy: -m0 Conclusion: CDDA 100% Signature: E530C0B68BBEF78D255CD5FD14A598DD5D5B3BC6FILE: 01 - Symphonie Nr. 6 a-moll - I. Allegro energico, ma non troppo.flac Size: 92673776 Hash: 6620286B1D537D8F8555DB1C3DA3982D Accuracy: -m0 Conclusion: CDDA 100% Signature: 14847F17E6998016A8E9F4CBFEAE3BEE09673204FILE: 04 - Symphonie Nr. 6 a-moll - IV. Finale. Allegro moderato. - Allegro energico.flac Size: 139626672 Hash: 9E3A749569DA479EE6580FE96A2A44E5 Accuracy: -m0 Conclusion: CDDA 99% Signature: A0CF8E6FCEF45603DDB4CABC8A89BBDFF10DE96E

    CUETools log / Отчёт CUETools

    [CUETools log; Date: 07.04.2015 10:59:02; Version: 2.1.4][AccurateRip ID: 000b7f36-002e73fd-34114504] found.Track [ CRC | V2 ] Status 01 [36e0c22f|a766e0ce] (07+30/39) Accurately ripped 02 [8bc42c28|57fcafd5] (07+30/39) Accurately ripped 03 [8de10c3c|16ef6786] (07+30/39) Accurately ripped 04 [ac3bc800|1423f11a] (07+28/37) Accurately rippedOffsetted by -29: 01 [c5c72359] (02/39) Accurately ripped 02 [b2a0d64e] (02/39) Accurately ripped 03 [8f5abbe9] (02/39) Accurately ripped 04 [36b8688e] (02/37) Accurately rippedOffsetted by -859: 01 [02e20566] (00/39) No match (V2 was not tested) 02 [14a19a4d] (00/39) No match (V2 was not tested) 03 [60a70fbf] (00/39) No match (V2 was not tested) 04 [da0c6e7e] (00/37) No match (V2 was not tested)
    Track Peak [ CRC32 ] [W/O NULL] [ LOG ] -- 100,0 [707EF069] [1EABBEF9] 01 100,0 [8C55037B] [22F22603] CRC32 02 80,7 [73467EDC] [38D91587] CRC32 03 46,7 [44AA308F] [714D522B] CRC32 04 100,0 [41B18288] [5BACB508] CRC32

    CUE sheet

    TITLE "Gustav Mahler: Symphonie Nr. 6 a-moll"PERFORMER "George Szell"REM GENRE ClassicalREM DISCID 34114504REM COMMENT "ExactAudioCopy v1.0b4"FILE "01 - Symphonie Nr. 6 a-moll - I. Allegro energico, ma non troppo.flac" WAVE TRACK 01 AUDIO TITLE "Symphonie Nr. 6 a-moll: I. Allegro energico, ma non troppo" PERFORMER "Cleveland Orchestra. George Szell, conductor" REM DATE 1967 INDEX 01 00:00:00 TRACK 02 AUDIO TITLE "Symphonie Nr. 6 a-moll: II. Scherzo: Wuchtig" PERFORMER "Cleveland Orchestra. George Szell, conductor" REM DATE 1967 INDEX 00 17:45:65FILE "02 - Symphonie Nr. 6 a-moll - II. Scherzo. Wuchtig.flac" WAVE INDEX 01 00:00:00 TRACK 03 AUDIO TITLE "Symphonie Nr. 6 a-moll: III. Andante moderato" PERFORMER "Cleveland Orchestra. George Szell, conductor" REM DATE 1967 INDEX 00 13:11:37FILE "03 - Symphonie Nr. 6 a-moll - III. Andante moderato.flac" WAVE INDEX 01 00:00:00 TRACK 04 AUDIO TITLE "Symphonie Nr. 6 a-moll: IV. Finale: Allegro moderato. — Allegro energico" PERFORMER "Cleveland Orchestra. George Szell, conductor" REM DATE 1967 INDEX 00 13:31:25FILE "04 - Symphonie Nr. 6 a-moll - IV. Finale. Allegro moderato. - Allegro energico.flac" WAVE INDEX 01 00:00:00
    -
    Gustav Mahler — каталог раздач на rutracker.org Все мои раздачи / All my releases



  • Показать сообщения:    

    Текущее время: 07-Дек 23:14

    Часовой пояс: UTC + 3


    Вы не можете начинать темы
    Вы не можете отвечать на сообщения
    Вы не можете редактировать свои сообщения
    Вы не можете удалять свои сообщения
    Вы не можете голосовать в опросах
    Вы не можете прикреплять файлы к сообщениям
    Вы не можете скачивать файлы