(Classica) Оркестр "Боян" - Дивертисмент (Rossini, Римский-Корсаков, Чайковский, Sibelius, Dvorak, Grig, Рахманинов, Fore, Straus, Monti, Свиридов) - 2003, FLAC (image+.cue) lossless


 

[Цитировать]

Государственный Академический Русский Концертный Оркестр "Боян" - Дивертисмент
Художественный руководитель и дирижер - Анатолий Полетаев
Жанр: Classica
Страна-производитель диска: Россия
Год издания диска: 2003
Издатель (лейбл): АГЕНСТВО "ЗВУК"
Номер по каталогу: ZV 13-03210
Дата записи: 2003
Аудиокодек: FLAC
Тип рипа: image+.cue
Битрейт аудио: lossless
Продолжительность: 60:47
Источник: собственный рип
Наличие сканов в содержимом раздачи: да
Треклист:
РОССИНИ
01. Увертюра ("Сорока-воровка") - 10:07
02. Каватина Фигаро ("Сивильский цирюльник") - 5:11
РИМСКИЙ КОРСАКОВ
03. Испанское каприччио - 6:25
ЧАЙКОВСКИЙ
04. Ария Роберто ("Иоланта") - 2:29
СИБЕЛИУС
05. Грустный вальс - 5:16
ДВОРЖАК
06. Славянский танец №8 - 3:58
ГРИГ
07. Шествие гномов - 3:43
РАХМАНИНОВ
08. Ария Франчески ("Франческа да Римини") - 2:59
ФОРЕ
09. Пробуждение - 3:22
ШТРАУС
10. Сказки Венского леса - 5:51
МОНТИ
11. Чардаш - 5:17
СВИРИДОВ
12. Романс ("Метель") - 5:19
Исполнители:
Государственный Академический Русский Концертный Оркестр "Боян"
Дирижер: Анатолий Полетаев
Солисты:
Евгений Поликанин (2,4), Ольга Терновская (8,10), Марина Новицкая (9), Андрей Филипов (11)

Лог создания рипа

Exact Audio Copy V1.0 beta 3 from 29. August 2011
Отчёт EAC об извлечении, выполненном 4. апреля 2015, 20:38
Оркестр "Боян" / Дивертисмент
Дисковод: _NEC DVD_RW ND-3550A Adapter: 3 ID: 0
Режим чтения : ДостоверностьИспользование точного потока : ДаОтключение кэша аудио : ДаИспользование указателей C2 : Нет
Коррекция смещения при чтении : 48Способность читать области Lead-in и Lead-out : НетЗаполнение пропущенных сэмплов тишиной : ДаУдаление блоков с тишиной в начале и конце : НетПри вычислениях CRC использовались нулевые сэмплы : ДаИнтерфейс : Встроенный Win32-интерфейс для Win NT/2000
Выходной формат : Внутренние WAV-операцииФормат сэмплов : 44.100 Гц; 16 бит; стерео
TOC извлечённого CD
Трек | Старт | Длительность | Начальный сектор | Конечный сектор --------------------------------------------------------------------- 1 | 0:00.00 | 10:10.54 | 0 | 45803 2 | 10:10.54 | 5:14.19 | 45804 | 69372 3 | 15:24.73 | 6:29.52 | 69373 | 98599 4 | 21:54.50 | 2:33.33 | 98600 | 110107 5 | 24:28.08 | 5:20.13 | 110108 | 134120 6 | 29:48.21 | 4:02.51 | 134121 | 152321 7 | 33:50.72 | 3:47.63 | 152322 | 169409 8 | 37:38.60 | 3:03.15 | 169410 | 183149 9 | 40:42.00 | 3:25.50 | 183150 | 198574 10 | 44:07.50 | 5:54.70 | 198575 | 225194 11 | 50:02.45 | 5:21.49 | 225195 | 249318 12 | 55:24.19 | 5:22.56 | 249319 | 273524
Характеристики диапазона извлечения и сообщения об ошибках
Выбранный диапазон
Имя файла D:\Downloads\Оркестр ''Боян'' - Дивертисмент.wav
Пиковый уровень 100.0 % Скорость извлечения 5.0 X Качество диапазона 99.9 % CRC теста 34168272 CRC копии 34168272 Копирование... OK
Ошибок не произошло
AccurateRip: сводка
Трек 1 отсутствует в базе данныхТрек 2 отсутствует в базе данныхТрек 3 отсутствует в базе данныхТрек 4 отсутствует в базе данныхТрек 5 отсутствует в базе данныхТрек 6 отсутствует в базе данныхТрек 7 отсутствует в базе данныхТрек 8 отсутствует в базе данныхТрек 9 отсутствует в базе данныхТрек 10 отсутствует в базе данныхТрек 11 отсутствует в базе данныхТрек 12 отсутствует в базе данных
Ни одного трека нет в базе AccurateRip
Конец отчёта
==== Контрольная сумма отчёта 9DF6B72C2AFC671EC0A74ED664AF93DDA6BA887CDFA2F037619F13A99D8A4A9C ====

Лог проверки качества

AUDIOCHECKER v2.0 beta (build 457) - by Dester - opdester@freemail.hu~~~~~~~~~~~~~~~~~~~~~~~~~~~~~~~~~~-=== НЕ РЕДАКТИРУЙТЕ ЭТОТ ФАЙЛ! ===-
Путь: ...\Downloads
1 -=- Оркестр ''Боян'' - Дивертисмент.wav -=- CDDA (100%)
236935300
Доп. информация:
Аранжировки:
Анатолий Полетаев (5,7,8-11)
Премастеринг: Б.Смирнов
Выпуску диска способствовали Министерство Культуры, Минатом России, "ЦНИЛОТ".
(Classical) Михаил Глинка. Любимые романсы и мелодии... - Оркестр "Боян" - 2004, FLAC (image+.cue) lossless



Показать сообщения:    

Текущее время: 09-Дек 03:03

Часовой пояс: UTC + 3


Вы не можете начинать темы
Вы не можете отвечать на сообщения
Вы не можете редактировать свои сообщения
Вы не можете удалять свои сообщения
Вы не можете голосовать в опросах
Вы не можете прикреплять файлы к сообщениям
Вы не можете скачивать файлы