(Classical) Arthur Bliss - Meditations on a Theme by John Blow; Metamorphic Variations - Bournemouth Symphony Orchestra, David Lloyd-Jones - 2010, FLAC (image+.cue) lossless


 

[Цитировать]

Arthur Bliss - Meditations on a Theme by John Blow; Metamorphic Variations - Bournemouth Symphony Orchestra, David Lloyd-Jones
Жанр: Classical
Год издания диска: 2010
Издатель (лейбл): Naxos
Номер по каталогу: 8.572316
Дата записи: 2009
Аудиокодек: FLAC
Тип рипа: image+.cue
Битрейт аудио: lossless
Продолжительность: 72:36
Источник: собственный рип
Наличие сканов в содержимом раздачи: да
Треклист:
Arthur Bliss (1891–1975)
[1]-[8] Meditations on a Theme by John Blow
[9]-[22] Metamorphic Variations
Исполнители:
Bournemouth Symphony Orchestra
David Lloyd-Jones

Лог создания рипа

Exact Audio Copy V1.0 beta 3 from 29. August 2011
EAC extraction logfile from 24. March 2015, 21:33
Bournemouth Symphony Orchestra, David Lloyd-Jones / Bliss - Meditations on a Theme by John Blow
Used drive : HL-DT-STDVDRAM GU70N Adapter: 0 ID: 0
Read mode : SecureUtilize accurate stream : YesDefeat audio cache : YesMake use of C2 pointers : No
Read offset correction : 48Overread into Lead-In and Lead-Out : NoFill up missing offset samples with silence : YesDelete leading and trailing silent blocks : NoNull samples used in CRC calculations : YesUsed interface : Native Win32 interface for Win NT & 2000
Used output format : User Defined EncoderSelected bitrate : 128 kBit/sQuality : HighAdd ID3 tag : NoCommand line compressor : C:\Program Files (x86)\Exact Audio Copy\Flac\flac.exeAdditional command line options : -V -8 -T "Date=%year%" -T "Genre=%genre%" %source%
TOC of the extracted CD
Track | Start | Length | Start sector | End sector --------------------------------------------------------- 1 | 0:00.00 | 7:24.31 | 0 | 33330 2 | 7:24.31 | 3:25.74 | 33331 | 48779 3 | 10:50.30 | 2:50.45 | 48780 | 61574 4 | 13:41.00 | 2:33.43 | 61575 | 73092 5 | 16:14.43 | 2:30.07 | 73093 | 84349 6 | 18:44.50 | 4:51.08 | 84350 | 106182 7 | 23:35.58 | 3:58.14 | 106183 | 124046 8 | 27:33.72 | 6:13.66 | 124047 | 152087 9 | 33:47.63 | 3:30.04 | 152088 | 167841 10 | 37:17.67 | 1:33.64 | 167842 | 174880 11 | 38:51.56 | 2:16.25 | 174881 | 185105 12 | 41:08.06 | 1:48.14 | 185106 | 193219 13 | 42:56.20 | 3:58.72 | 193220 | 211141 14 | 46:55.17 | 2:52.23 | 211142 | 224064 15 | 49:47.40 | 2:24.41 | 224065 | 234905 16 | 52:12.06 | 3:45.21 | 234906 | 251801 17 | 55:57.27 | 4:06.46 | 251802 | 270297 18 | 60:03.73 | 2:56.52 | 270298 | 283549 19 | 63:00.50 | 1:44.66 | 283550 | 291415 20 | 64:45.41 | 2:19.69 | 291416 | 301909 21 | 67:05.35 | 0:51.46 | 301910 | 305780 22 | 67:57.06 | 4:31.31 | 305781 | 326136
Range status and errors
Selected range
Filename C:\temp\Naxos_8.572316 - Bliss - Meditations on a Theme by John Blow\Bliss - Meditations on a Theme by John Blow.wav
Peak level 99.9 % Extraction speed 2.3 X Range quality 100.0 % Test CRC 0ED636EF Copy CRC 0ED636EF Copy OK
No errors occurred
AccurateRip summary
Track 1 accurately ripped (confidence 2) [58EC64A2] (AR v2)Track 2 accurately ripped (confidence 2) [2FBBD772] (AR v2)Track 3 accurately ripped (confidence 2) [D7F45803] (AR v2)Track 4 accurately ripped (confidence 2) [01986FA3] (AR v2)Track 5 accurately ripped (confidence 2) [3EEA9BA7] (AR v2)Track 6 accurately ripped (confidence 2) [9E333888] (AR v2)Track 7 accurately ripped (confidence 2) [987C341E] (AR v2)Track 8 accurately ripped (confidence 2) [E1817E28] (AR v2)Track 9 accurately ripped (confidence 2) [681035A2] (AR v2)Track 10 accurately ripped (confidence 2) [06260982] (AR v2)Track 11 accurately ripped (confidence 2) [F79F12BC] (AR v2)Track 12 accurately ripped (confidence 2) [1B7ABC36] (AR v2)Track 13 accurately ripped (confidence 2) [A7B09DE0] (AR v2)Track 14 accurately ripped (confidence 2) [EF6B9B08] (AR v2)Track 15 accurately ripped (confidence 2) [16589EB5] (AR v2)Track 16 accurately ripped (confidence 2) [D2C35F91] (AR v2)Track 17 accurately ripped (confidence 2) [76B889D6] (AR v2)Track 18 accurately ripped (confidence 2) [193B075C] (AR v2)Track 19 accurately ripped (confidence 2) [9AC2F512] (AR v2)Track 20 accurately ripped (confidence 2) [5B154A9C] (AR v2)Track 21 accurately ripped (confidence 2) [D4CA4B8D] (AR v2)Track 22 accurately ripped (confidence 2) [7CB5EF88] (AR v2)
All tracks accurately ripped
End of status report
==== Log checksum 586183518011522A344D9D50B2431F1788360D259BAD90849A4DF987EBB7DFAE ====



Показать сообщения:    

Текущее время: 03-Дек 12:39

Часовой пояс: UTC + 3


Вы не можете начинать темы
Вы не можете отвечать на сообщения
Вы не можете редактировать свои сообщения
Вы не можете удалять свои сообщения
Вы не можете голосовать в опросах
Вы не можете прикреплять файлы к сообщениям
Вы не можете скачивать файлы