(Classical, Orchestral, Choral) Bruckner - Symphonies 3-9, Te Deum, Mass No. 3 (Price, Borchers, Ahnsjo, Helm, Soffel, Holle, Straka, Josef Schmidhuber, Munchner Philharmoniker, Sergiu Celibidache - 2011, FLAC (image+.cue), lossless


 

[Цитировать]

Bruckner - Symphonies 3-9, Te Deum, Mass No. 3 - Celibidache
Жанр: Classical, Orchestral, Choral
Страна-производитель диска: EU
Год издания диска: 2011
Издатель (лейбл): Warner Classics
Номер по каталогу: 50999 0 85578 2 7
Дата записи: 1987-1995
Аудиокодек: FLAC
Тип рипа: image+.cue
Битрейт аудио: lossless
Продолжительность: 711:57
Источник: собственный рип
Наличие сканов в содержимом раздачи: да

CD1:Треклист:

Symphony No. 3 in D minor
01. I. Mehr langsam, Misterioso
02. II. Adagio, bewegt, quasi andante
03. III. Ziemlich schnell
04. IV. Allegro
05. Applause
Total 66.42

Лог создания рипа:

Exact Audio Copy V1.0 beta 3 from 29. August 2011
Отчёт EAC об извлечении, выполненном 24. марта 2015, 19:55
Anton Bruckner / Symphonie Nr. 3 in D minor
Дисковод: Optiarc DVD RW AD-7260S Adapter: 0 ID: 1
Режим чтения : Достоверность
Использование точного потока : Да
Отключение кэша аудио : Да
Использование указателей C2 : Нет
Коррекция смещения при чтении : 48
Способность читать области Lead-in и Lead-out : Нет
Заполнение пропущенных сэмплов тишиной : Да
Удаление блоков с тишиной в начале и конце : Нет
При вычислениях CRC использовались нулевые сэмплы : Да
Интерфейс : Встроенный Win32-интерфейс для Win NT/2000
Выходной формат : Пользовательский кодировщик
Выбранный битрейт : 896 kBit/s
Качество : Высокий
Добавление ID3-тега : Нет
Утилита сжатия : C:\Program Files\FLAC Frontend\tools\flac.exe
Дополнительные параметры : -V -8 -T "Date=%year%" -T "Genre=%genre%" %source%
TOC извлечённого CD
Трек | Старт | Длительность | Начальный сектор | Конечный сектор
---------------------------------------------------------------------
1 | 0:00.00 | 25:28.50 | 0 | 114649
2 | 25:28.50 | 17:00.12 | 114650 | 191161
3 | 42:28.62 | 7:58.33 | 191162 | 227044
4 | 50:27.20 | 15:03.70 | 227045 | 294839
5 | 65:31.15 | 1:10.30 | 294840 | 300119
Характеристики диапазона извлечения и сообщения об ошибках
Выбранный диапазон
Имя файла N:\Bruckner - Symphonies 3-9, Te Deum, Mass No. 3 - Celibidache\CD1\Anton Bruckner - Symphonie Nr. 3 in D minor.wav
Пиковый уровень 98.0 %
Скорость извлечения 4.0 X
Качество диапазона 99.9 %
CRC теста D517CA12
CRC копии D517CA12
Копирование... OK
Ошибок не произошло
AccurateRip: сводка
Трек 1 : извлечено точно (доверие 5) [9DBB09F0] (AR v2)
Трек 2 : извлечено точно (доверие 5) [FAEA3FE5] (AR v2)
Трек 3 : извлечено точно (доверие 5) [B03B6126] (AR v2)
Трек 4 : извлечено точно (доверие 5) [7EE9B522] (AR v2)
Трек 5 : извлечено точно (доверие 5) [E6ACA51B] (AR v2)
Все треки извлечены точно
Конец отчёта
==== Контрольная сумма отчёта D3A3C9F159E1C5AB21BF5DEA319AD4C43B3460AC8A90476870AF63B4A0EC59D0 ====

CD2:Треклист:

Symphony No. 4 in E flat 'Romantic'
01. I. Bewegt, nicht zu schnell
02. II. Andante quasi Allegretto
03. III. Scherzo: Bewegt - Trio. Nicht zu schnell. Keinesfalls schleppend
04. IV. Finale. Bewegt, doch nicht zu schnell
Total 79.11

Лог создания рипа:

Exact Audio Copy V1.0 beta 3 from 29. August 2011
Отчёт EAC об извлечении, выполненном 24. марта 2015, 20:49
Anton Bruckner / Symphony No. 4 in E flat "Romantic"
Дисковод: Optiarc DVD RW AD-7260S Adapter: 0 ID: 1
Режим чтения : Достоверность
Использование точного потока : Да
Отключение кэша аудио : Да
Использование указателей C2 : Нет
Коррекция смещения при чтении : 48
Способность читать области Lead-in и Lead-out : Нет
Заполнение пропущенных сэмплов тишиной : Да
Удаление блоков с тишиной в начале и конце : Нет
При вычислениях CRC использовались нулевые сэмплы : Да
Интерфейс : Встроенный Win32-интерфейс для Win NT/2000
Выходной формат : Пользовательский кодировщик
Выбранный битрейт : 896 kBit/s
Качество : Высокий
Добавление ID3-тега : Нет
Утилита сжатия : C:\Program Files\FLAC Frontend\tools\flac.exe
Дополнительные параметры : -V -8 -T "Date=%year%" -T "Genre=%genre%" %source%
TOC извлечённого CD
Трек | Старт | Длительность | Начальный сектор | Конечный сектор
---------------------------------------------------------------------
1 | 0:00.00 | 22:08.05 | 0 | 99604
2 | 22:08.05 | 17:50.50 | 99605 | 179904
3 | 39:58.55 | 11:20.07 | 179905 | 230911
4 | 51:18.62 | 27:52.40 | 230912 | 356351
Характеристики диапазона извлечения и сообщения об ошибках
Выбранный диапазон
Имя файла N:\Bruckner - Symphonies 3-9, Te Deum, Mass No. 3 - Celibidache\CD2\Anton Bruckner - Symphony No. 4 in E flat ''Romantic''.wav
Пиковый уровень 98.0 %
Скорость извлечения 4.6 X
Качество диапазона 100.0 %
CRC теста DA06B7EB
CRC копии DA06B7EB
Копирование... OK
Ошибок не произошло
AccurateRip: сводка
Трек 1 : извлечено точно (доверие 38) [3D96DF82] (AR v2)
Трек 2 : извлечено точно (доверие 39) [1FD9425D] (AR v2)
Трек 3 : извлечено точно (доверие 38) [5740D6D2] (AR v2)
Трек 4 : извлечено точно (доверие 40) [ADB3302F] (AR v2)
Все треки извлечены точно
Конец отчёта
==== Контрольная сумма отчёта 9289D0BEAF2BC6BC21E7F52AA852EF1A8BC21E38183528B2A0FAFE8ED6FB18E3 ====

CD3:Треклист:

Symphony No. 5 in B flat
01. Applause
02. I. Adagio - Allegro
03. II. Adagio: Sehr langsam
Total 48.03

Лог создания рипа:

Exact Audio Copy V1.0 beta 3 from 29. August 2011
Отчёт EAC об извлечении, выполненном 25. марта 2015, 9:53
Anton Bruckner / Symphony No. 5 in B flat (I & II)
Дисковод: Optiarc DVD RW AD-7260S Adapter: 0 ID: 1
Режим чтения : Достоверность
Использование точного потока : Да
Отключение кэша аудио : Да
Использование указателей C2 : Нет
Коррекция смещения при чтении : 48
Способность читать области Lead-in и Lead-out : Нет
Заполнение пропущенных сэмплов тишиной : Да
Удаление блоков с тишиной в начале и конце : Нет
При вычислениях CRC использовались нулевые сэмплы : Да
Интерфейс : Встроенный Win32-интерфейс для Win NT/2000
Выходной формат : Пользовательский кодировщик
Выбранный битрейт : 896 kBit/s
Качество : Высокий
Добавление ID3-тега : Нет
Утилита сжатия : C:\Program Files\FLAC Frontend\tools\flac.exe
Дополнительные параметры : -V -8 -T "Date=%year%" -T "Genre=%genre%" %source%
TOC извлечённого CD
Трек | Старт | Длительность | Начальный сектор | Конечный сектор
---------------------------------------------------------------------
1 | 0:00.00 | 0:44.47 | 0 | 3346
2 | 0:44.47 | 23:04.55 | 3347 | 107201
3 | 23:49.27 | 24:14.08 | 107202 | 216259
Характеристики диапазона извлечения и сообщения об ошибках
Выбранный диапазон
Имя файла N:\Bruckner - Symphonies 3-9, Te Deum, Mass No. 3 - Celibidache\CD3\Anton Bruckner - Symphony No. 5 in B flat (I & II).wav
Пиковый уровень 98.0 %
Скорость извлечения 3.7 X
Качество диапазона 100.0 %
CRC теста 3A907935
CRC копии 3A907935
Копирование... OK
Ошибок не произошло
AccurateRip: сводка
Трек 1 : извлечено точно (доверие 40) [E4EAA06B] (AR v2)
Трек 2 : извлечено точно (доверие 42) [C849E6DA] (AR v2)
Трек 3 : извлечено точно (доверие 42) [1409D9DE] (AR v2)
Все треки извлечены точно
Конец отчёта
==== Контрольная сумма отчёта 724BC100922AD1D25AD86B31574E190B5A0DBC42AEF418E95BAB9C015361C4AE ====

CD4:Треклист:

Symphony No. 5 in B flat
01. III. Scherzo: Molto vivace (Schnell) - Trio
02. IV. Finale: Adagio - Allegro moderato
03. Applause
Total 41.50

Лог создания рипа:

Exact Audio Copy V1.0 beta 3 from 29. August 2011
Отчёт EAC об извлечении, выполненном 25. марта 2015, 12:08
Anton Bruckner / Symphony No. 5 in B flat (III & IV)
Дисковод: Optiarc DVD RW AD-7260S Adapter: 0 ID: 1
Режим чтения : Достоверность
Использование точного потока : Да
Отключение кэша аудио : Да
Использование указателей C2 : Нет
Коррекция смещения при чтении : 48
Способность читать области Lead-in и Lead-out : Нет
Заполнение пропущенных сэмплов тишиной : Да
Удаление блоков с тишиной в начале и конце : Нет
При вычислениях CRC использовались нулевые сэмплы : Да
Интерфейс : Встроенный Win32-интерфейс для Win NT/2000
Выходной формат : Пользовательский кодировщик
Выбранный битрейт : 896 kBit/s
Качество : Высокий
Добавление ID3-тега : Нет
Утилита сжатия : C:\Program Files\FLAC Frontend\tools\flac.exe
Дополнительные параметры : -V -8 -T "Date=%year%" -T "Genre=%genre%" %source%
TOC извлечённого CD
Трек | Старт | Длительность | Начальный сектор | Конечный сектор
---------------------------------------------------------------------
1 | 0:00.00 | 14:56.15 | 0 | 67214
2 | 14:56.15 | 26:10.30 | 67215 | 184994
3 | 41:06.45 | 0:43.62 | 184995 | 188281
Характеристики диапазона извлечения и сообщения об ошибках
Выбранный диапазон
Имя файла N:\Bruckner - Symphonies 3-9, Te Deum, Mass No. 3 - Celibidache\CD4\Anton Bruckner - Symphony No. 5 in B flat (III & IV).wav
Пиковый уровень 98.0 %
Скорость извлечения 3.6 X
Качество диапазона 100.0 %
CRC теста 36644DA2
CRC копии 36644DA2
Копирование... OK
Ошибок не произошло
AccurateRip: сводка
Трек 1 : извлечено точно (доверие 42) [85F9A701] (AR v2)
Трек 2 : извлечено точно (доверие 42) [55C544EA] (AR v2)
Трек 3 : извлечено точно (доверие 39) [50E3B6F1] (AR v2)
Все треки извлечены точно
Конец отчёта
==== Контрольная сумма отчёта B6EB2CF36666F6D936BB572023E07164B7EF687D54A71C8611C1A7B434056763 ====

CD5:Треклист:

Symphony No. 6 in A
01. Applause
02. I. Majestoso
03. II. Adagio: Sehr feierlich
04. III. Scherzo: Nicht schnell - Trio: Langsam
05. IV. Finale: Bewegt, doch nicht zu schnell
06. Applause
Total 65.49

Лог создания рипа:

Exact Audio Copy V1.0 beta 3 from 29. August 2011
Отчёт EAC об извлечении, выполненном 25. марта 2015, 13:18
Anton Bruckner / Symphony No. 6 in A
Дисковод: Optiarc DVD RW AD-7260S Adapter: 0 ID: 1
Режим чтения : Достоверность
Использование точного потока : Да
Отключение кэша аудио : Да
Использование указателей C2 : Нет
Коррекция смещения при чтении : 48
Способность читать области Lead-in и Lead-out : Нет
Заполнение пропущенных сэмплов тишиной : Да
Удаление блоков с тишиной в начале и конце : Нет
При вычислениях CRC использовались нулевые сэмплы : Да
Интерфейс : Встроенный Win32-интерфейс для Win NT/2000
Выходной формат : Пользовательский кодировщик
Выбранный битрейт : 896 kBit/s
Качество : Высокий
Добавление ID3-тега : Нет
Утилита сжатия : C:\Program Files\FLAC Frontend\tools\flac.exe
Дополнительные параметры : -V -8 -T "Date=%year%" -T "Genre=%genre%" %source%
TOC извлечённого CD
Трек | Старт | Длительность | Начальный сектор | Конечный сектор
---------------------------------------------------------------------
1 | 0:00.00 | 0:51.27 | 0 | 3851
2 | 0:51.27 | 17:27.53 | 3852 | 82429
3 | 18:19.05 | 22:34.47 | 82430 | 184026
4 | 40:53.52 | 8:38.03 | 184027 | 222879
5 | 49:31.55 | 15:16.00 | 222880 | 291579
6 | 64:47.55 | 1:00.62 | 291580 | 296141
Характеристики диапазона извлечения и сообщения об ошибках
Выбранный диапазон
Имя файла N:\Bruckner - Symphonies 3-9, Te Deum, Mass No. 3 - Celibidache\CD5\Anton Bruckner - Symphony No. 6 in A.wav
Пиковый уровень 98.0 %
Скорость извлечения 4.0 X
Качество диапазона 100.0 %
CRC теста DC590785
CRC копии DC590785
Копирование... OK
Ошибок не произошло
AccurateRip: сводка
Трек 1 : извлечено точно (доверие 40) [C6B556CE] (AR v2)
Трек 2 : извлечено точно (доверие 43) [E3275691] (AR v2)
Трек 3 : извлечено точно (доверие 41) [1E3D1E2F] (AR v2)
Трек 4 : извлечено точно (доверие 42) [2343A4BD] (AR v2)
Трек 5 : извлечено точно (доверие 43) [32BE51EE] (AR v2)
Трек 6 : извлечено точно (доверие 41) [73270EE2] (AR v2)
Все треки извлечены точно
Конец отчёта
==== Контрольная сумма отчёта 8D155ADE192C391E81740819EA6EE133DCBF3BA099E7965A7DFB715CAB46C526 ====

CD6:Треклист:

Symphony No. 7 in E
01. Applaus
02. I. Allegro moderato
03. II. Adagio: Sehr feierlich und sehr langsam
Total 54.24

Лог создания рипа:

Exact Audio Copy V1.0 beta 3 from 29. August 2011
Отчёт EAC об извлечении, выполненном 25. марта 2015, 16:36
Anton Bruckner / Symphony No. 7 in E (I & II)
Дисковод: Optiarc DVD RW AD-7260S Adapter: 0 ID: 1
Режим чтения : Достоверность
Использование точного потока : Да
Отключение кэша аудио : Да
Использование указателей C2 : Нет
Коррекция смещения при чтении : 48
Способность читать области Lead-in и Lead-out : Нет
Заполнение пропущенных сэмплов тишиной : Да
Удаление блоков с тишиной в начале и конце : Нет
При вычислениях CRC использовались нулевые сэмплы : Да
Интерфейс : Встроенный Win32-интерфейс для Win NT/2000
Выходной формат : Пользовательский кодировщик
Выбранный битрейт : 896 kBit/s
Качество : Высокий
Добавление ID3-тега : Нет
Утилита сжатия : C:\Program Files\FLAC Frontend\tools\flac.exe
Дополнительные параметры : -V -8 -T "Date=%year%" -T "Genre=%genre%" %source%
TOC извлечённого CD
Трек | Старт | Длительность | Начальный сектор | Конечный сектор
---------------------------------------------------------------------
1 | 0:00.00 | 0:50.30 | 0 | 3779
2 | 0:50.30 | 24:46.45 | 3780 | 115274
3 | 25:37.00 | 28:46.45 | 115275 | 244769
Характеристики диапазона извлечения и сообщения об ошибках
Выбранный диапазон
Имя файла N:\Bruckner - Symphonies 3-9, Te Deum, Mass No. 3 - Celibidache\CD6\Anton Bruckner - Symphony No. 7 in E (I & II).wav
Пиковый уровень 97.9 %
Скорость извлечения 3.8 X
Качество диапазона 100.0 %
CRC теста 7E1C04BB
CRC копии 7E1C04BB
Копирование... OK
Ошибок не произошло
AccurateRip: сводка
Трек 1 : извлечено точно (доверие 41) [8A8E4FC0] (AR v2)
Трек 2 : извлечено точно (доверие 43) [6F6C11F0] (AR v2)
Трек 3 : извлечено точно (доверие 44) [469BC960] (AR v2)
Все треки извлечены точно
Конец отчёта
==== Контрольная сумма отчёта 58B05AE6F7AF0B511C78ED53E638CF8E6365420ADF1784739A6E647B2292DCE0 ====

CD7:Треклист:

Symphony No. 7 in E
01. III. Scherzo. Sehr schnell - Trio
02. IV. Finale. Bewegt, doch nicht schnell
03. Applaus
Te Deum
04. Te Deum. Allegro moderato
05. Te ergo. Moderato
06. Aeterna fac: Allegro moderato
07. Salvum fac. Moderato - Allegro moderato
08. In te, Domine, speravi: Massig bewegt - Allegro moderato - Alla breve
Total 60.00

Лог создания рипа:

Exact Audio Copy V1.0 beta 3 from 29. August 2011
Отчёт EAC об извлечении, выполненном 25. марта 2015, 17:17
Anton Bruckner / Symphony No. 7 in E (III & IV), Te Deum
Дисковод: Optiarc DVD RW AD-7260S Adapter: 0 ID: 1
Режим чтения : Достоверность
Использование точного потока : Да
Отключение кэша аудио : Да
Использование указателей C2 : Нет
Коррекция смещения при чтении : 48
Способность читать области Lead-in и Lead-out : Нет
Заполнение пропущенных сэмплов тишиной : Да
Удаление блоков с тишиной в начале и конце : Нет
При вычислениях CRC использовались нулевые сэмплы : Да
Интерфейс : Встроенный Win32-интерфейс для Win NT/2000
Выходной формат : Пользовательский кодировщик
Выбранный битрейт : 896 kBit/s
Качество : Высокий
Добавление ID3-тега : Нет
Утилита сжатия : C:\Program Files\FLAC Frontend\tools\flac.exe
Дополнительные параметры : -V -8 -T "Date=%year%" -T "Genre=%genre%" %source%
TOC извлечённого CD
Трек | Старт | Длительность | Начальный сектор | Конечный сектор
---------------------------------------------------------------------
1 | 0:00.00 | 12:04.50 | 0 | 54349
2 | 12:04.50 | 14:30.72 | 54350 | 119671
3 | 26:35.47 | 1:16.10 | 119672 | 125381
4 | 27:51.57 | 9:44.20 | 125382 | 169201
5 | 37:36.02 | 3:33.15 | 169202 | 185191
6 | 41:09.17 | 2:17.23 | 185192 | 195489
7 | 43:26.40 | 9:05.45 | 195490 | 236409
8 | 52:32.10 | 7:27.57 | 236410 | 269991
Характеристики диапазона извлечения и сообщения об ошибках
Выбранный диапазон
Имя файла N:\Bruckner - Symphonies 3-9, Te Deum, Mass No. 3 - Celibidache\CD7\Anton Bruckner - Symphony No. 7 in E (III & IV), Te Deum.wav
Пиковый уровень 98.0 %
Скорость извлечения 3.9 X
Качество диапазона 99.9 %
CRC теста F9EF88E5
CRC копии F9EF88E5
Копирование... OK
Ошибок не произошло
AccurateRip: сводка
Трек 1 : извлечено точно (доверие 44) [11503209] (AR v2)
Трек 2 : извлечено точно (доверие 44) [4985B5FA] (AR v2)
Трек 3 : извлечено точно (доверие 40) [C663D2BC] (AR v2)
Трек 4 : извлечено точно (доверие 43) [44DEBF48] (AR v2)
Трек 5 : извлечено точно (доверие 43) [457608BB] (AR v2)
Трек 6 : извлечено точно (доверие 43) [85BCC824] (AR v2)
Трек 7 : извлечено точно (доверие 43) [FDB20728] (AR v2)
Трек 8 : извлечено точно (доверие 43) [31883257] (AR v2)
Все треки извлечены точно
Конец отчёта
==== Контрольная сумма отчёта 1220127B3C889BE58AC89A288155BCB40A3A72CC94C9BFFC90A9FD78B00BB1A3 ====

CD8:Треклист:

Symphony No. 8 in C minor
01. Applaus
02. I. Allegro moderato
03. II. Scherzo: Allegro moderato - Trio: Langsam
Total 38.35

Лог создания рипа:

Exact Audio Copy V1.0 beta 3 from 29. August 2011
Отчёт EAC об извлечении, выполненном 25. марта 2015, 18:49
Anton Bruckner / Symphony No. 8 in C minor (I & II)
Дисковод: Optiarc DVD RW AD-7260S Adapter: 0 ID: 1
Режим чтения : Достоверность
Использование точного потока : Да
Отключение кэша аудио : Да
Использование указателей C2 : Нет
Коррекция смещения при чтении : 48
Способность читать области Lead-in и Lead-out : Нет
Заполнение пропущенных сэмплов тишиной : Да
Удаление блоков с тишиной в начале и конце : Нет
При вычислениях CRC использовались нулевые сэмплы : Да
Интерфейс : Встроенный Win32-интерфейс для Win NT/2000
Выходной формат : Пользовательский кодировщик
Выбранный битрейт : 896 kBit/s
Качество : Высокий
Добавление ID3-тега : Нет
Утилита сжатия : C:\Program Files\FLAC Frontend\tools\flac.exe
Дополнительные параметры : -V -8 -T "Date=%year%" -T "Genre=%genre%" %source%
TOC извлечённого CD
Трек | Старт | Длительность | Начальный сектор | Конечный сектор
---------------------------------------------------------------------
1 | 0:00.00 | 0:57.37 | 0 | 4311
2 | 0:57.37 | 21:32.60 | 4312 | 101271
3 | 22:30.22 | 16:05.00 | 101272 | 173646
Характеристики диапазона извлечения и сообщения об ошибках
Выбранный диапазон
Имя файла N:\Bruckner - Symphonies 3-9, Te Deum, Mass No. 3 - Celibidache\CD8\Anton Bruckner - Symphony No. 8 in C minor (I & II).wav
Пиковый уровень 98.0 %
Скорость извлечения 3.5 X
Качество диапазона 100.0 %
CRC теста 19474A8D
CRC копии 19474A8D
Копирование... OK
Ошибок не произошло
AccurateRip: сводка
Трек 1 : извлечено точно (доверие 40) [7288EA6A] (AR v2)
Трек 2 : извлечено точно (доверие 44) [31A510A2] (AR v2)
Трек 3 : извлечено точно (доверие 44) [A7AF369B] (AR v2)
Все треки извлечены точно
Конец отчёта
==== Контрольная сумма отчёта 4000C0FA7BF55A019F2E9E5FA590BFF0C7621FF80F1FB729C304449ECFFB75CD ====

CD9:Треклист:

Symphony No. 8 in C minor
01. III. Adagio: Feierlich langsam, doch nicht schleppend
02. IV. Finale: Feierlich, nicht schnell
03. Applaus
Total 68.53

Лог создания рипа:

Exact Audio Copy V1.0 beta 3 from 29. August 2011
Отчёт EAC об извлечении, выполненном 26. марта 2015, 11:02
Anton Bruckner / Symphony No. 8 in C minor (III & IV)
Дисковод: Optiarc DVD RW AD-7260S Adapter: 0 ID: 1
Режим чтения : Достоверность
Использование точного потока : Да
Отключение кэша аудио : Да
Использование указателей C2 : Нет
Коррекция смещения при чтении : 48
Способность читать области Lead-in и Lead-out : Нет
Заполнение пропущенных сэмплов тишиной : Да
Удаление блоков с тишиной в начале и конце : Нет
При вычислениях CRC использовались нулевые сэмплы : Да
Интерфейс : Встроенный Win32-интерфейс для Win NT/2000
Выходной формат : Пользовательский кодировщик
Выбранный битрейт : 896 kBit/s
Качество : Высокий
Добавление ID3-тега : Нет
Утилита сжатия : C:\Program Files\FLAC Frontend\tools\flac.exe
Дополнительные параметры : -V -8 -T "Date=%year%" -T "Genre=%genre%" %source%
TOC извлечённого CD
Трек | Старт | Длительность | Начальный сектор | Конечный сектор
---------------------------------------------------------------------
1 | 0:00.00 | 35:31.55 | 0 | 159879
2 | 35:31.55 | 32:23.70 | 159880 | 305674
3 | 67:55.50 | 0:57.37 | 305675 | 309986
Характеристики диапазона извлечения и сообщения об ошибках
Выбранный диапазон
Имя файла N:\Bruckner - Symphonies 3-9, Te Deum, Mass No. 3 - Celibidache\CD9\Anton Bruckner - Symphony No. 8 in C minor (III & IV).wav
Пиковый уровень 98.0 %
Скорость извлечения 4.1 X
Качество диапазона 100.0 %
CRC теста 93F1C354
CRC копии 93F1C354
Копирование... OK
Ошибок не произошло
AccurateRip: сводка
Трек 1 : извлечено точно (доверие 43) [3C0F08E3] (AR v2)
Трек 2 : извлечено точно (доверие 42) [778CB186] (AR v2)
Трек 3 : извлечено точно (доверие 39) [4FE03EE3] (AR v2)
Все треки извлечены точно
Конец отчёта
==== Контрольная сумма отчёта BA730081193453D21F1C921D7ADDF4682F55BFE10294F82DE4A64EE317B09239 ====

CD10:Треклист:

Symphony No. 9 in D minor
01. Applaus
02. I. Feierlich. Misterioso
03. II. Scherzo: Bewegt, lebhaft - Trio: Schnell
Total 47.39

Лог создания рипа:

Exact Audio Copy V1.0 beta 3 from 29. August 2011
Отчёт EAC об извлечении, выполненном 26. марта 2015, 11:41
Anton Bruckner / Symphony No. 9 in D minor (I & II)
Дисковод: Optiarc DVD RW AD-7260S Adapter: 0 ID: 1
Режим чтения : Достоверность
Использование точного потока : Да
Отключение кэша аудио : Да
Использование указателей C2 : Нет
Коррекция смещения при чтении : 48
Способность читать области Lead-in и Lead-out : Нет
Заполнение пропущенных сэмплов тишиной : Да
Удаление блоков с тишиной в начале и конце : Нет
При вычислениях CRC использовались нулевые сэмплы : Да
Интерфейс : Встроенный Win32-интерфейс для Win NT/2000
Выходной формат : Пользовательский кодировщик
Выбранный битрейт : 896 kBit/s
Качество : Высокий
Добавление ID3-тега : Нет
Утилита сжатия : C:\Program Files\FLAC Frontend\tools\flac.exe
Дополнительные параметры : -V -8 -T "Date=%year%" -T "Genre=%genre%" %source%
TOC извлечённого CD
Трек | Старт | Длительность | Начальный сектор | Конечный сектор
---------------------------------------------------------------------
1 | 0:00.00 | 0:57.37 | 0 | 4311
2 | 0:57.37 | 32:53.63 | 4312 | 152349
3 | 33:51.25 | 13:47.25 | 152350 | 214399
Характеристики диапазона извлечения и сообщения об ошибках
Выбранный диапазон
Имя файла N:\Bruckner - Symphonies 3-9, Te Deum, Mass No. 3 - Celibidache\CD10\Anton Bruckner - Symphony No. 9 in D minor (I & II).wav
Пиковый уровень 98.0 %
Скорость извлечения 3.7 X
Качество диапазона 100.0 %
CRC теста 91ABEE04
CRC копии 91ABEE04
Копирование... OK
Ошибок не произошло
AccurateRip: сводка
Трек 1 : извлечено точно (доверие 40) [FD283BFF] (AR v2)
Трек 2 : извлечено точно (доверие 44) [15BC4278] (AR v2)
Трек 3 : извлечено точно (доверие 44) [49F455CD] (AR v2)
Все треки извлечены точно
Конец отчёта
==== Контрольная сумма отчёта 50C23E4A2B3FBABD15CD82D1C4476A3C6AC407F5DE3AE79DB749BB68BE299379 ====

CD11:Треклист:

Symphony No. 9 in D minor
01. III. Adagio: Langsam, feierlich
02. Applaus
Symphony No. 9 - Excerpts from the rehearsals
03. Bars 1ff
04. Bars 97ff
05. Bars 1ff
06. Untitled
07. Bars 1ff
08. Bars 53ff
09. Bars 129ff
10. Bars 140ff
11. Untitled
Total 65.40

Лог создания рипа:

Exact Audio Copy V1.0 beta 3 from 29. August 2011
Отчёт EAC об извлечении, выполненном 26. марта 2015, 12:39
Anton Bruckner / Symphony No. 9 in D minor (III)
Дисковод: Optiarc DVD RW AD-7260S Adapter: 0 ID: 1
Режим чтения : Достоверность
Использование точного потока : Да
Отключение кэша аудио : Да
Использование указателей C2 : Нет
Коррекция смещения при чтении : 48
Способность читать области Lead-in и Lead-out : Нет
Заполнение пропущенных сэмплов тишиной : Да
Удаление блоков с тишиной в начале и конце : Нет
При вычислениях CRC использовались нулевые сэмплы : Да
Интерфейс : Встроенный Win32-интерфейс для Win NT/2000
Выходной формат : Пользовательский кодировщик
Выбранный битрейт : 896 kBit/s
Качество : Высокий
Добавление ID3-тега : Нет
Утилита сжатия : C:\Program Files\FLAC Frontend\tools\flac.exe
Дополнительные параметры : -V -8 -T "Date=%year%" -T "Genre=%genre%" %source%
TOC извлечённого CD
Трек | Старт | Длительность | Начальный сектор | Конечный сектор
---------------------------------------------------------------------
1 | 0:00.00 | 30:47.32 | 0 | 138556
2 | 30:47.32 | 1:22.15 | 138557 | 144721
3 | 32:09.47 | 6:16.43 | 144722 | 172964
4 | 38:26.15 | 4:25.30 | 172965 | 192869
5 | 42:51.45 | 1:20.57 | 192870 | 198926
6 | 44:12.27 | 1:01.63 | 198927 | 203564
7 | 45:14.15 | 10:36.10 | 203565 | 251274
8 | 55:50.25 | 2:06.60 | 251275 | 260784
9 | 57:57.10 | 1:03.52 | 260785 | 265561
10 | 59:00.62 | 4:22.73 | 265562 | 285284
11 | 63:23.60 | 2:16.00 | 285285 | 295484
Характеристики диапазона извлечения и сообщения об ошибках
Выбранный диапазон
Имя файла N:\Bruckner - Symphonies 3-9, Te Deum, Mass No. 3 - Celibidache\CD11\Anton Bruckner - Symphony No. 9 in D minor (III).wav
Пиковый уровень 98.0 %
Скорость извлечения 4.0 X
Качество диапазона 100.0 %
CRC теста DFB39304
CRC копии DFB39304
Копирование... OK
Ошибок не произошло
AccurateRip: сводка
Трек 1 : извлечено точно (доверие 43) [59E0FBE9] (AR v2)
Трек 2 : извлечено точно (доверие 39) [61BCB33F] (AR v2)
Трек 3 : извлечено точно (доверие 41) [B229F55D] (AR v2)
Трек 4 : извлечено точно (доверие 41) [F3B12F8C] (AR v2)
Трек 5 : извлечено точно (доверие 41) [DB7F02CD] (AR v2)
Трек 6 : извлечено точно (доверие 41) [B42E7F93] (AR v2)
Трек 7 : извлечено точно (доверие 41) [B854A08F] (AR v2)
Трек 8 : извлечено точно (доверие 41) [14F39F71] (AR v2)
Трек 9 : извлечено точно (доверие 41) [8E415119] (AR v2)
Трек 10 : извлечено точно (доверие 40) [5CF12F3E] (AR v2)
Трек 11 : извлечено точно (доверие 40) [97C67DD3] (AR v2)
Все треки извлечены точно
Конец отчёта
==== Контрольная сумма отчёта 05935D4EEA9BE604739BAD101A345683A12387F6A36DBD7484117FE7559DE752 ====

CD12:Треклист:

Mass No. 3 in F minor
01. Kyrie: Moderato
02. II. Gloria: Allegro - Andante, mehr adagio (sehr langsam) - Tempo I - Ziemlic...
03. III. Credo: Allegro - Moderato misterioso - Langsam - Largo - Allegro -
04. IV. Sanctus: Moderato - Allegro
05. V. Benedictus: Allegro moderato - Allegro
06. VI. Agnus Dei: Andante - Moderato
Total 77.16

Лог создания рипа:

Exact Audio Copy V1.0 beta 3 from 29. August 2011
Отчёт EAC об извлечении, выполненном 26. марта 2015, 13:22
Anton Bruckner / Mass No. 3 in F minor
Дисковод: Optiarc DVD RW AD-7260S Adapter: 0 ID: 1
Режим чтения : Достоверность
Использование точного потока : Да
Отключение кэша аудио : Да
Использование указателей C2 : Нет
Коррекция смещения при чтении : 48
Способность читать области Lead-in и Lead-out : Нет
Заполнение пропущенных сэмплов тишиной : Да
Удаление блоков с тишиной в начале и конце : Нет
При вычислениях CRC использовались нулевые сэмплы : Да
Интерфейс : Встроенный Win32-интерфейс для Win NT/2000
Выходной формат : Пользовательский кодировщик
Выбранный битрейт : 896 kBit/s
Качество : Высокий
Добавление ID3-тега : Нет
Утилита сжатия : C:\Program Files\FLAC Frontend\tools\flac.exe
Дополнительные параметры : -V -8 -T "Date=%year%" -T "Genre=%genre%" %source%
TOC извлечённого CD
Трек | Старт | Длительность | Начальный сектор | Конечный сектор
---------------------------------------------------------------------
1 | 0:00.00 | 12:38.30 | 0 | 56879
2 | 12:38.30 | 15:11.25 | 56880 | 125229
3 | 27:49.55 | 24:20.17 | 125230 | 234746
4 | 52:09.72 | 2:45.60 | 234747 | 247181
5 | 54:55.57 | 11:34.65 | 247182 | 299296
6 | 66:30.47 | 10:45.28 | 299297 | 347699
Характеристики диапазона извлечения и сообщения об ошибках
Выбранный диапазон
Имя файла N:\Bruckner - Symphonies 3-9, Te Deum, Mass No. 3 - Celibidache\CD12\Anton Bruckner - Mass No. 3 in F minor.wav
Пиковый уровень 98.0 %
Скорость извлечения 4.5 X
Качество диапазона 100.0 %
CRC теста 8CB70A07
CRC копии 8CB70A07
Копирование... OK
Ошибок не произошло
AccurateRip: сводка
Трек 1 : извлечено точно (доверие 41) [8D96CF8F] (AR v2)
Трек 2 : извлечено точно (доверие 41) [B7E5D033] (AR v2)
Трек 3 : извлечено точно (доверие 41) [9EE4BC16] (AR v2)
Трек 4 : извлечено точно (доверие 41) [AC835019] (AR v2)
Трек 5 : извлечено точно (доверие 41) [72D599AC] (AR v2)
Трек 6 : извлечено точно (доверие 40) [778C89D9] (AR v2)
Все треки извлечены точно
Конец отчёта
==== Контрольная сумма отчёта 337FC80A2367EEC25DA3A1B20140F4FFDF71FCB42CC054F0A44ED673E5261EF9 ====

Исполнители:

Margaret Price
Christel Borchers
Claes H. Ahnsjo
Karl Helm
Doris Soffel
Peter Straka
Mattias Holle
Philharmonischer Chor Munchen
Members of the Mucher Bach-Chor
Josef Schmidhuber
Munchner Philharmoniker
Sergiu Celibidache



Показать сообщения:    

Текущее время: 09-Дек 05:00

Часовой пояс: UTC + 3


Вы не можете начинать темы
Вы не можете отвечать на сообщения
Вы не можете редактировать свои сообщения
Вы не можете удалять свои сообщения
Вы не можете голосовать в опросах
Вы не можете прикреплять файлы к сообщениям
Вы не можете скачивать файлы