(Classical) Мусоргский - Картинки с выставки • Чайковский - Симфония №4 - Orchestre National du Capitole de Toulouse, Туган Сохиев (Sokhiev) - 2006, FLAC (image+.cue) lossless


 

[Цитировать]

Мусоргский - Картинки с выставки • Чайковский - Симфония №4 - Orchestre National du Capitole de Toulouse, Туган Сохиев
Жанр: Classical
Страна-производитель диска: France
Год издания диска: 2006
Издатель (лейбл): Naive
Номер по каталогу: V5068
Дата записи: 2006
Аудиокодек: FLAC
Тип рипа: image+.cue
Битрейт аудио: lossless
Продолжительность: 76:22
Источник: собственный рип
Наличие сканов в содержимом раздачи: да
Треклист:
Модест Петрович Мусоргский (1839-1881)
[1]-[15] Картинки с выставки (оркестровка Мориса Равеля)
Петр Ильич Чайковский (1840-1893)
[16]-[19] Симфония №4 фа минор, Op.36
Исполнители:
Orchestre National du Capitole de Toulouse
Tugan Sokhiev

Лог создания рипа

Exact Audio Copy V1.0 beta 3 from 29. August 2011
EAC extraction logfile from 3. December 2014, 1:32
Orchestre National du Capitole de Toulouse, Tugan Sokhiev / Mussorgsky - Pictures at an Exhibition; Tchaikovsky - Symphony No.4
Used drive : HL-DT-STDVDRAM GU70N Adapter: 0 ID: 0
Read mode : SecureUtilize accurate stream : YesDefeat audio cache : YesMake use of C2 pointers : No
Read offset correction : 48Overread into Lead-In and Lead-Out : NoFill up missing offset samples with silence : YesDelete leading and trailing silent blocks : NoNull samples used in CRC calculations : YesUsed interface : Native Win32 interface for Win NT & 2000
Used output format : User Defined EncoderSelected bitrate : 128 kBit/sQuality : HighAdd ID3 tag : NoCommand line compressor : C:\Program Files (x86)\Exact Audio Copy\Flac\flac.exeAdditional command line options : -V -8 -T "Date=%year%" -T "Genre=%genre%" %source%
TOC of the extracted CD
Track | Start | Length | Start sector | End sector --------------------------------------------------------- 1 | 0:00.00 | 1:39.74 | 0 | 7498 2 | 1:39.74 | 2:51.16 | 7499 | 20339 3 | 4:31.15 | 1:06.57 | 20340 | 25346 4 | 5:37.72 | 4:35.24 | 25347 | 45995 5 | 10:13.21 | 0:31.62 | 45996 | 48382 6 | 10:45.08 | 1:09.62 | 48383 | 53619 7 | 11:54.70 | 2:43.32 | 53620 | 65876 8 | 14:38.27 | 0:50.11 | 65877 | 69637 9 | 15:28.38 | 1:14.05 | 69638 | 75192 10 | 16:42.43 | 2:37.63 | 75193 | 87030 11 | 19:20.31 | 1:25.36 | 87031 | 93441 12 | 20:45.67 | 1:58.17 | 93442 | 102308 13 | 22:44.09 | 2:05.72 | 102309 | 111755 14 | 24:50.06 | 3:14.66 | 111756 | 126371 15 | 28:04.72 | 5:29.17 | 126372 | 151063 16 | 33:34.14 | 18:40.71 | 151064 | 235134 17 | 52:15.10 | 10:04.58 | 235135 | 280492 18 | 62:19.68 | 5:27.10 | 280493 | 305027 19 | 67:47.03 | 8:33.18 | 305028 | 343520
Range status and errors
Selected range
Filename C:\temp\V5068 - Mussorgsky - Pictures at an Exhibition; Tchaikovsky - Symphony No.4\Mussorgsky - Pictures at an Exhibition; Tchaikovsky - Symphony No.4.wav
Peak level 99.9 % Extraction speed 2.2 X Range quality 99.9 % Test CRC 3B4B9971 Copy CRC 3B4B9971 Copy OK
No errors occurred
AccurateRip summary
Track 1 cannot be verified as accurate (confidence 7) [852FC87D], AccurateRip returned [158819C1] (AR v2)Track 2 cannot be verified as accurate (confidence 7) [48B46113], AccurateRip returned [EBB141AA] (AR v2)Track 3 cannot be verified as accurate (confidence 7) [43F570B6], AccurateRip returned [33205ECB] (AR v2)Track 4 cannot be verified as accurate (confidence 7) [F3060BD8], AccurateRip returned [241EEE87] (AR v2)Track 5 cannot be verified as accurate (confidence 7) [CF99331F], AccurateRip returned [33C6087E] (AR v2)Track 6 cannot be verified as accurate (confidence 7) [96D48C56], AccurateRip returned [013462E4] (AR v2)Track 7 cannot be verified as accurate (confidence 7) [04197AE9], AccurateRip returned [EA0F3CBC] (AR v2)Track 8 cannot be verified as accurate (confidence 7) [1D626BAA], AccurateRip returned [3316F829] (AR v2)Track 9 cannot be verified as accurate (confidence 7) [DEE25611], AccurateRip returned [6B1573B1] (AR v2)Track 10 cannot be verified as accurate (confidence 7) [F0C1A555], AccurateRip returned [8CB9A314] (AR v2)Track 11 cannot be verified as accurate (confidence 7) [23901AF2], AccurateRip returned [679DF890] (AR v2)Track 12 cannot be verified as accurate (confidence 7) [C729AEBF], AccurateRip returned [AAC3F14B] (AR v2)Track 13 cannot be verified as accurate (confidence 7) [41FD9CA1], AccurateRip returned [D23B4C2F] (AR v2)Track 14 cannot be verified as accurate (confidence 7) [02F3813F], AccurateRip returned [A86A3947] (AR v2)Track 15 cannot be verified as accurate (confidence 7) [F7BA3CB4], AccurateRip returned [97E18EE0] (AR v2)Track 16 cannot be verified as accurate (confidence 7) [2E86AB78], AccurateRip returned [2324FFAB] (AR v2)Track 17 cannot be verified as accurate (confidence 7) [9D6EDCCB], AccurateRip returned [07B7F2E2] (AR v2)Track 18 cannot be verified as accurate (confidence 7) [5F11C9DB], AccurateRip returned [FF2A57D8] (AR v2)Track 19 cannot be verified as accurate (confidence 7) [DBD193A0], AccurateRip returned [09940891] (AR v2)
No tracks could be verified as accurateYou may have a different pressing from the one(s) in the database
End of status report
==== Log checksum 07DC853CD2EA810523799D1E908375EAE1890190E458068289201152826359DF ====



Показать сообщения:    

Текущее время: 25-Янв 00:21

Часовой пояс: UTC + 3


Вы не можете начинать темы
Вы не можете отвечать на сообщения
Вы не можете редактировать свои сообщения
Вы не можете удалять свои сообщения
Вы не можете голосовать в опросах
Вы не можете прикреплять файлы к сообщениям
Вы не можете скачивать файлы