(Classical) Khachaturian/Хачатурян, Spendiaryan/Спендиарян, Adgemian/Аджемян, Sarian/Сарьян, Hovhannessian, Tjeknavorian, Mirzoyan, Babadjanian - Armenian Orchestral Music (Armenian PO, Loris Tjeknavorian) ASV1037 - 1998, FLAC (tracks+.cue) lossless


 

[Цитировать]

Khachaturian/Хачатурян, Tjeknavorian, Spendiaryan/Спендиарян, Adgemian/Аджемян, Sarian/Сарьян, Hovhannessian, Tjeknavorian, Mirzoyan, Hovhannessian, Yeghiazarian, Babadjanian - Armenian Orchestral Music
Жанр: Classical
Год издания диска: 1998
Издатель (лейбл): ASV Gold
Номер по каталогу: 1037
Дата записи: 2004
Аудиокодек: FLAC
Тип рипа: tracks+.cue
Битрейт аудио: lossless
Продолжительность: 01:16:20
Источник: собственный рип
Наличие сканов в содержимом раздачи: да
Исполнители:
Armenian Philharmonic Orchestra
Loris Tjeknavorian

Треклист:

Aram Khachaturian
01. Gayaneh: March (04:00)
Loris Tjeknavorian
02. Valse D'Amour (03:45)
Alexander Spendiaryan
03. Almast: Persian March (03:27)
Alexander Adgemian
04. Rhapsody (09:43)
Ghazar Sarian
Symphonic Canvas Armenia:
05. Sunrise (02:38)
06. Drinking Song (02:50)
Edgar Sergei Hovhannessian
07. Erebouni Yerevan (04:27)
Loris Tjeknavorian
08. Othello: Adagio (04:39)
Edvard Mirzoyan
09. Symphonic Dances: Lezginka (03:37)
Edgar Sergei Hovhannessian
10. Sardarapat (03:11)
Alexander Afanasii Spendiaryan
Yerevanian Studies:
11. Enzeli (06:55)
12. Alexander Afanasii Spendiaryan - Yerevanian Studies: Hidjaz (02:02)
Grigor Yeghiazarian
Seven: Suite No. 2:
13. Dances Of The Fishermen (03:16)
14. Dances Of The Golden Fish (05:00)
15. Dance Of Young Girls (01:54)
Arno Babadjanian
16. Fantasy (10:39)
Loris Tjeknavorian
17. My Armenia (04:17)

LOG EAC CD:

Exact Audio Copy V1.0 beta 3 from 29. August 2011
EAC extraction logfile from 21. March 2015, 11:59
Tjeknavorian, Armenian PO / Armenian Orchestral Music
Used drive : PIONEER DVD-RW DVR-221L Adapter: 2 ID: 0
Read mode : SecureUtilize accurate stream : YesDefeat audio cache : YesMake use of C2 pointers : No
Read offset correction : 6Overread into Lead-In and Lead-Out : NoFill up missing offset samples with silence : YesDelete leading and trailing silent blocks : NoNull samples used in CRC calculations : YesUsed interface : Installed external ASPI interfaceGap handling : Appended to previous track
Used output format : User Defined EncoderSelected bitrate : 768 kBit/sQuality : HighAdd ID3 tag : NoCommand line compressor : C:\Program Files\Exact Audio Copy\Flac\flac.exeAdditional command line options : -6 -V -T "ARTIST=%artist%" -T "TITLE=%title%" -T "ALBUM=%albumtitle%" -T "DATE=%year%" -T "TRACKNUMBER=%tracknr%" -T "GENRE=%genre%" -T "COMMENT=%comment%" -T "ALBUMARTIST=%albuminterpret%" -T "COMPOSER=%composer%" -T "DISCNUMBER=%cdnumber%" -T "TOTALDISCS=%totalcds%" -T "TOTALTRACKS=%numtracks%" %source% -o %dest%
TOC of the extracted CD
Track | Start | Length | Start sector | End sector --------------------------------------------------------- 1 | 0:00.00 | 4:00.15 | 0 | 18014 2 | 4:00.15 | 3:45.20 | 18015 | 34909 3 | 7:45.35 | 3:27.25 | 34910 | 50459 4 | 11:12.60 | 9:42.40 | 50460 | 94149 5 | 20:55.25 | 2:38.37 | 94150 | 106036 6 | 23:33.62 | 2:50.13 | 106037 | 118799 7 | 26:24.00 | 4:26.67 | 118800 | 138816 8 | 30:50.67 | 4:38.48 | 138817 | 159714 9 | 35:29.40 | 3:37.22 | 159715 | 176011 10 | 39:06.62 | 3:10.40 | 176012 | 190301 11 | 42:17.27 | 6:54.40 | 190302 | 221391 12 | 49:11.67 | 2:01.50 | 221392 | 230516 13 | 51:13.42 | 3:15.68 | 230517 | 245209 14 | 54:29.35 | 5:00.15 | 245210 | 267724 15 | 59:29.50 | 1:54.10 | 267725 | 276284 16 | 61:23.60 | 10:38.57 | 276285 | 324191 17 | 72:02.42 | 4:17.15 | 324192 | 343481
Track 1
Filename D:\EAC\01 - Aram Khachaturian - Gayaneh- March.wav
Pre-gap length 0:00:02.00
Peak level 98.3 % Extraction speed 4.8 X Track quality 100.0 % Test CRC D9230128 Copy CRC D9230128 Track not present in AccurateRip database Copy OK
Track 2
Filename D:\EAC\02 - Loris Tjeknavorian - Valse D'Amour.wav
Peak level 92.0 % Extraction speed 5.4 X Track quality 100.0 % Test CRC 072B8E1D Copy CRC 072B8E1D Track not present in AccurateRip database Copy OK
Track 3
Filename D:\EAC\03 - Alexander Spendiaryan - Almast- Persian March.wav
Peak level 92.4 % Extraction speed 5.6 X Track quality 100.0 % Test CRC 7AFF7648 Copy CRC 7AFF7648 Track not present in AccurateRip database Copy OK
Track 4
Filename D:\EAC\04 - Alexander Adgemian - Rhapsody.wav
Peak level 99.9 % Extraction speed 6.9 X Track quality 100.0 % Test CRC 57C7739F Copy CRC 57C7739F Track not present in AccurateRip database Copy OK
Track 5
Filename D:\EAC\05 - Ghazar Sarian - Symphonic Canvas Armenia- Sunrise.wav
Peak level 62.1 % Extraction speed 6.5 X Track quality 100.0 % Test CRC 2328E60B Copy CRC 2328E60B Track not present in AccurateRip database Copy OK
Track 6
Filename D:\EAC\06 - Ghazar Sarian - Symphonic Canvas Armenia- Drinking Song.wav
Peak level 73.5 % Extraction speed 6.7 X Track quality 100.0 % Test CRC F83E936B Copy CRC F83E936B Track not present in AccurateRip database Copy OK
Track 7
Filename D:\EAC\07 - Edgar Sergei Hovhannessian - Erebouni Yerevan.wav
Peak level 99.9 % Extraction speed 6.2 X Track quality 99.9 % Test CRC 545D77E8 Copy CRC 545D77E8 Track not present in AccurateRip database Copy OK
Track 8
Filename D:\EAC\08 - Loris Tjeknavorian - Othello- Adagio.wav
Peak level 27.7 % Extraction speed 8.0 X Track quality 100.0 % Test CRC AFF35885 Copy CRC AFF35885 Track not present in AccurateRip database Copy OK
Track 9
Filename D:\EAC\09 - Edvard Mirzoyan - Symphonic Dances- Lezginka.wav
Peak level 97.0 % Extraction speed 8.0 X Track quality 100.0 % Test CRC 12A7D2EB Copy CRC 12A7D2EB Track not present in AccurateRip database Copy OK
Track 10
Filename D:\EAC\10 - Edgar Sergei Hovhannessian - Sardarapat.wav
Peak level 99.9 % Extraction speed 6.3 X Track quality 99.9 % Test CRC D6440546 Copy CRC D6440546 Track not present in AccurateRip database Copy OK
Track 11
Filename D:\EAC\11 - Alexander Afanasii Spendiaryan - Yerevanian Studies- Enzeli.wav
Peak level 99.9 % Extraction speed 9.1 X Track quality 100.0 % Test CRC 670BE562 Copy CRC 670BE562 Track not present in AccurateRip database Copy OK
Track 12
Filename D:\EAC\12 - Alexander Afanasii Spendiaryan - Yerevanian Studies- Hidjaz.wav
Peak level 88.5 % Extraction speed 7.9 X Track quality 100.0 % Test CRC 303A8025 Copy CRC 303A8025 Track not present in AccurateRip database Copy OK
Track 13
Filename D:\EAC\13 - Grigor Yeghiazarian - Seven- Suite No. 2- Dances Of The Fishermen.wav
Peak level 97.2 % Extraction speed 8.8 X Track quality 100.0 % Test CRC 7AE50ABE Copy CRC 7AE50ABE Track not present in AccurateRip database Copy OK
Track 14
Filename D:\EAC\14 - Grigor Yeghiazarian - Seven- Suite No. 2- Dances Of The Golden Fish.wav
Peak level 90.9 % Extraction speed 9.6 X Track quality 100.0 % Test CRC A7036A96 Copy CRC A7036A96 Track not present in AccurateRip database Copy OK
Track 15
Filename D:\EAC\15 - Grigor Yeghiazarian - Seven- Suite No. 2- Dance Of Young Girls.wav
Peak level 95.5 % Extraction speed 8.1 X Track quality 100.0 % Test CRC 74E7C25B Copy CRC 74E7C25B Track not present in AccurateRip database Copy OK
Track 16
Filename D:\EAC\16 - Arno Babadjanian - Fantasy.wav
Peak level 99.9 % Extraction speed 9.6 X Track quality 99.9 % Test CRC 05478B77 Copy CRC 05478B77 Track not present in AccurateRip database Copy OK
Track 17
Filename D:\EAC\17 - Loris Tjeknavorian - My Armenia.wav
Peak level 99.9 % Extraction speed 10.4 X Track quality 100.0 % Test CRC BD3D8F36 Copy CRC BD3D8F36 Track not present in AccurateRip database Copy OK
None of the tracks are present in the AccurateRip database
No errors occurred
End of status report
==== Log checksum 6832B75AAF995AA3CED9AAC28B3884D0ADEB738AE45996DD1FD0706B0338BDA0 ====

LOG (.CUE):

REM GENRE ClassicalREM DATE 1998REM DISCID F711E311REM COMMENT "ExactAudioCopy v1.0b3"PERFORMER "Tjeknavorian, Armenian PO"TITLE "Armenian Orchestral Music"FILE "01 - Aram Khachaturian - Gayaneh- March.wav" WAVE TRACK 01 AUDIO TITLE "Aram Khachaturian - Gayaneh: March" PERFORMER "Tjeknavorian, Armenian PO" INDEX 01 00:00:00FILE "02 - Loris Tjeknavorian - Valse D'Amour.wav" WAVE TRACK 02 AUDIO TITLE "Loris Tjeknavorian - Valse D'Amour" PERFORMER "Tjeknavorian, Armenian PO" INDEX 01 00:00:00FILE "03 - Alexander Spendiaryan - Almast- Persian March.wav" WAVE TRACK 03 AUDIO TITLE "Alexander Spendiaryan - Almast: Persian March" PERFORMER "Tjeknavorian, Armenian PO" INDEX 01 00:00:00FILE "04 - Alexander Adgemian - Rhapsody.wav" WAVE TRACK 04 AUDIO TITLE "Alexander Adgemian - Rhapsody" PERFORMER "Tjeknavorian, Armenian PO" INDEX 01 00:00:00FILE "05 - Ghazar Sarian - Symphonic Canvas Armenia- Sunrise.wav" WAVE TRACK 05 AUDIO TITLE "Ghazar Sarian - Symphonic Canvas Armenia: Sunrise" PERFORMER "Tjeknavorian, Armenian PO" INDEX 01 00:00:00FILE "06 - Ghazar Sarian - Symphonic Canvas Armenia- Drinking Song.wav" WAVE TRACK 06 AUDIO TITLE "Ghazar Sarian - Symphonic Canvas Armenia: Drinking Song" PERFORMER "Tjeknavorian, Armenian PO" INDEX 01 00:00:00FILE "07 - Edgar Sergei Hovhannessian - Erebouni Yerevan.wav" WAVE TRACK 07 AUDIO TITLE "Edgar Sergei Hovhannessian - Erebouni Yerevan " PERFORMER "Tjeknavorian, Armenian PO" INDEX 01 00:00:00FILE "08 - Loris Tjeknavorian - Othello- Adagio.wav" WAVE TRACK 08 AUDIO TITLE "Loris Tjeknavorian - Othello: Adagio" PERFORMER "Tjeknavorian, Armenian PO" INDEX 01 00:00:00FILE "09 - Edvard Mirzoyan - Symphonic Dances- Lezginka.wav" WAVE TRACK 09 AUDIO TITLE "Edvard Mirzoyan - Symphonic Dances: Lezginka" PERFORMER "Tjeknavorian, Armenian PO" INDEX 01 00:00:00FILE "10 - Edgar Sergei Hovhannessian - Sardarapat.wav" WAVE TRACK 10 AUDIO TITLE "Edgar Sergei Hovhannessian - Sardarapat" PERFORMER "Tjeknavorian, Armenian PO" INDEX 01 00:00:00FILE "11 - Alexander Afanasii Spendiaryan - Yerevanian Studies- Enzeli.wav" WAVE TRACK 11 AUDIO TITLE "Alexander Afanasii Spendiaryan - Yerevanian Studies: Enzeli" PERFORMER "Tjeknavorian, Armenian PO" INDEX 01 00:00:00FILE "12 - Alexander Afanasii Spendiaryan - Yerevanian Studies- Hidjaz.wav" WAVE TRACK 12 AUDIO TITLE "Alexander Afanasii Spendiaryan - Yerevanian Studies: Hidjaz" PERFORMER "Tjeknavorian, Armenian PO" INDEX 01 00:00:00FILE "13 - Grigor Yeghiazarian - Seven- Suite No. 2- Dances Of The Fishermen.wav" WAVE TRACK 13 AUDIO TITLE "Grigor Yeghiazarian - Seven: Suite No. 2: Dances Of The Fishermen" PERFORMER "Tjeknavorian, Armenian PO" INDEX 01 00:00:00FILE "14 - Grigor Yeghiazarian - Seven- Suite No. 2- Dances Of The Golden Fish.wav" WAVE TRACK 14 AUDIO TITLE "Grigor Yeghiazarian - Seven: Suite No. 2: Dances Of The Golden Fish" PERFORMER "Tjeknavorian, Armenian PO" INDEX 01 00:00:00FILE "15 - Grigor Yeghiazarian - Seven- Suite No. 2- Dance Of Young Girls.wav" WAVE TRACK 15 AUDIO TITLE "Grigor Yeghiazarian - Seven: Suite No. 2: Dance Of Young Girls" PERFORMER "Tjeknavorian, Armenian PO" INDEX 01 00:00:00FILE "16 - Arno Babadjanian - Fantasy.wav" WAVE TRACK 16 AUDIO TITLE "Arno Babadjanian - Fantasy" PERFORMER "Tjeknavorian, Armenian PO" INDEX 01 00:00:00FILE "17 - Loris Tjeknavorian - My Armenia.wav" WAVE TRACK 17 AUDIO TITLE "Loris Tjeknavorian - My Armenia" PERFORMER "Tjeknavorian, Armenian PO" INDEX 01 00:00:00
mp3



Показать сообщения:    

Текущее время: 09-Дек 22:27

Часовой пояс: UTC + 3


Вы не можете начинать темы
Вы не можете отвечать на сообщения
Вы не можете редактировать свои сообщения
Вы не можете удалять свои сообщения
Вы не можете голосовать в опросах
Вы не можете прикреплять файлы к сообщениям
Вы не можете скачивать файлы