(Classical) Wolfgang Amadeus Mozart - Spectacular Classics - 2010, FLAC (image+.cue) lossless


 

[Цитировать]

Wolfgang Amadeus Mozart - Spectacular Classics
Жанр: Classical
Страна-производитель диска: Румыния
Год издания диска: 2010
Издатель (лейбл): Musicbank limited
Номер по каталогу: 570C9707
Аудиокодек: FLAC
Тип рипа: image+.cue
Битрейт аудио: lossless
Продолжительность: 53:43
Источник: собственный рип
Наличие сканов в содержимом раздачи: да
Треклист:
Symphony No. 40 In G Minor K 550
1. Molto Allegro
2. Andante
3. Menuetto: Allegro trio
4. Allegro Assai

The Royal Danish Symphony Orchestra (Werner, Ludwig Baum)
5. Overture to 'Cosi Fan Tutte
Hamburg Symphony Orchestra (Harold Newman)
6. Serenade In G Major K 525 'Eine Kleine Nacht Musik'
Hamburg Symphony Orchestra (Harold Newman)
7. Overture to 'The Marriage of Figaro'
Hamburg Symphony Orchestra (Harold Newman)
Исполнители:
The Royal Danish Symphony Orchestra (Werner, Ludwig Baum)
Hamburg Symphony Orchestra (Harold Newman)

Все раздачи серии Spectacular Classics

Spectacular Classics

Лог создания рипа

Exact Audio Copy V1.0 beta 4 from 7. December 2014
Отчёт EAC об извлечении, выполненном 25. января 2015, 15:21
Wolfgang Amadeus Mozart / Spectacular classics
Дисковод: Optiarc DVD RW AD-7700S Adapter: 1 ID: 2
Режим чтения : ДостоверностьИспользование точного потока : ДаОтключение кэша аудио : ДаИспользование указателей C2 : Нет
Коррекция смещения при чтении : 48Способность читать области Lead-in и Lead-out : ДаЗаполнение пропущенных сэмплов тишиной : ДаУдаление блоков с тишиной в начале и конце : НетПри вычислениях CRC использовались нулевые сэмплы : ДаИнтерфейс : Встроенный Win32-интерфейс для Win NT/2000
Выходной формат : Пользовательский кодировщикВыбранный битрейт : 128 kBit/sКачество : ВысокийДобавление ID3-тега : НетУтилита сжатия : C:\Program Files (x86)\Exact Audio Copy\Flac\flac.exeДополнительные параметры : -V -8 -T "Date=%year%" -T "Genre=%genre%" %source%
TOC извлечённого CD
Трек | Старт | Длительность | Начальный сектор | Конечный сектор --------------------------------------------------------------------- 1 | 0:00.00 | 7:56.12 | 0 | 35711 2 | 7:56.12 | 7:50.60 | 35712 | 71021 3 | 15:46.72 | 4:31.50 | 71022 | 91396 4 | 20:18.47 | 4:51.48 | 91397 | 113269 5 | 25:10.20 | 4:48.17 | 113270 | 134886 6 | 29:58.37 | 19:42.65 | 134887 | 223601 7 | 49:41.27 | 4:02.20 | 223602 | 241771
Характеристики диапазона извлечения и сообщения об ошибках
Выбранный диапазон
Имя файла D:\Downloads\Spectacular Classics\Mozart\Wolfgang Amadeus Mozart - Spectacular classics.wav
Подозрительная позиция 0:53:43
Пиковый уровень 89.1 % Скорость извлечения 4.7 X Качество диапазона 99.9 % CRC теста 4CBC03F2 CRC копии B6897AD3 Копирование завершено
Были ошибки
Конец отчёта
==== Контрольная сумма отчёта F4028E33DDAB404A0AADB49DE7C370719AC88B7F7BFD0DB989BDF35ED6E96B09 ====

Содержание индексной карты (.CUE)

REM GENRE ClassicalREM DATE 2010REM DISCID 570C9707REM COMMENT "ExactAudioCopy v1.0b4"PERFORMER "Wolfgang Amadeus Mozart"TITLE "Spectacular Classics"FILE "Wolfgang Amadeus Mozart - Spectacular Classics.flac" WAVE TRACK 01 AUDIO TITLE "Symphony #40 In G Minor, K 550 - 1. Molto Allegro" PERFORMER "Royal Danish Symphony Orchestra" FLAGS DCP INDEX 01 00:00:00 TRACK 02 AUDIO TITLE "Symphony #40 In G Minor, K 550 - 2. Andante" PERFORMER "Royal Danish Symphony Orchestra" FLAGS DCP INDEX 00 07:54:12 INDEX 01 07:56:12 TRACK 03 AUDIO TITLE "Symphony #40 In G Minor, K 550 - 3. Menuet & Trio" PERFORMER "Royal Danish Symphony Orchestra" FLAGS DCP INDEX 00 15:44:72 INDEX 01 15:46:72 TRACK 04 AUDIO TITLE "Symphony #40 In G Minor, K 550 - 4. Finale: Allegro Assai" PERFORMER "Royal Danish Symphony Orchestra" FLAGS DCP INDEX 00 20:16:47 INDEX 01 20:18:47 TRACK 05 AUDIO TITLE "Cosi Fan Tutte - Overture" PERFORMER "Hamburg Symphony Orchestra" FLAGS DCP INDEX 00 25:08:20 INDEX 01 25:10:20 TRACK 06 AUDIO TITLE "Serenade In G, K 525, 'Eine Kleine Nachtmusic'" PERFORMER "Hamburg Symphony Orchestra" FLAGS DCP INDEX 00 29:56:37 INDEX 01 29:58:37 TRACK 07 AUDIO TITLE "The Marriage Of Figaro - Overture" PERFORMER "Hanburg Symphony Orchestra" FLAGS DCP INDEX 00 49:39:27 INDEX 01 49:41:27
Доп. информация: На подозрительной позиции звуковые артефакты отсутствуют.



Показать сообщения:    

Текущее время: 11-Дек 13:02

Часовой пояс: UTC + 3


Вы не можете начинать темы
Вы не можете отвечать на сообщения
Вы не можете редактировать свои сообщения
Вы не можете удалять свои сообщения
Вы не можете голосовать в опросах
Вы не можете прикреплять файлы к сообщениям
Вы не можете скачивать файлы