(Classical) Johann Strauss II - Spectacular Classics II - 2010, FLAC (image+.cue) lossless


 

[Цитировать]

Johann Strauss II - Spectacular Classics II
Жанр: Classical
Страна-производитель диска: Румыния
Год издания диска: 2010
Издатель (лейбл): Musicbank limited
Номер по каталогу: 8B0F7D0A
Аудиокодек: FLAC
Тип рипа: image+.cue
Битрейт аудио: lossless
Продолжительность: 66:05
Источник: собственный рип
Наличие сканов в содержимом раздачи: да
Треклист:
1. Annen Polka, OP 117
2. Artists Life, OP 316
3. Emperor Waltz
4. Million Waltz, OP 443
5. Hungarian Polka, OP 332
6. Light As A Feather, OP 319
7. Love Songs Waltz, OP 114
8. Persian March, OP 298
9. Where The Lemon Trees Blossom Waltz, OP 364
10. Luxury Train Polka, OP 181
Исполнители:
Austrian Radio Symphony Orchestra (Hans Swarowsky)

Все раздачи серии Spectacular Classics

Spectacular Classics

Лог создания рипа

Exact Audio Copy V1.0 beta 4 from 7. December 2014
Отчёт EAC об извлечении, выполненном 18. января 2015, 20:58
Johann Strauss II / Apollo Classics
Дисковод: Optiarc DVD RW AD-7700S Adapter: 1 ID: 2
Режим чтения : ДостоверностьИспользование точного потока : ДаОтключение кэша аудио : ДаИспользование указателей C2 : Нет
Коррекция смещения при чтении : 48Способность читать области Lead-in и Lead-out : ДаЗаполнение пропущенных сэмплов тишиной : ДаУдаление блоков с тишиной в начале и конце : НетПри вычислениях CRC использовались нулевые сэмплы : ДаИнтерфейс : Встроенный Win32-интерфейс для Win NT/2000
Выходной формат : Пользовательский кодировщикВыбранный битрейт : 128 kBit/sКачество : ВысокийДобавление ID3-тега : НетУтилита сжатия : C:\Program Files (x86)\Exact Audio Copy\Flac\flac.exeДополнительные параметры : -V -8 -T "Date=%year%" -T "Genre=%genre%" %source%
TOC извлечённого CD
Трек | Старт | Длительность | Начальный сектор | Конечный сектор --------------------------------------------------------------------- 1 | 0:00.00 | 3:08.07 | 0 | 14106 2 | 3:08.07 | 9:55.23 | 14107 | 58754 3 | 13:03.30 | 12:03.10 | 58755 | 112989 4 | 25:06.40 | 10:16.07 | 112990 | 159196 5 | 35:22.47 | 2:53.15 | 159197 | 172186 6 | 38:15.62 | 2:48.65 | 172187 | 184851 7 | 41:04.52 | 9:49.40 | 184852 | 229066 8 | 50:54.17 | 2:26.13 | 229067 | 240029 9 | 53:20.30 | 9:54.35 | 240030 | 284614 10 | 63:14.65 | 2:51.00 | 284615 | 297439
Характеристики диапазона извлечения и сообщения об ошибках
Выбранный диапазон
Имя файла D:\Downloads\Johann Strauss\Johann Strauss II - Apollo Classics.wav
Подозрительная позиция 1:06:05
Пиковый уровень 100.0 % Скорость извлечения 4.8 X Качество диапазона 99.9 % CRC теста 65F3063E CRC копии 65F3063E Копирование завершено
Были ошибки
Конец отчёта
==== Контрольная сумма отчёта 5015000432665BDCF582F00EE9F5E614122B76731BF60BDFFA5380A7D4D8A130 ====

Содержание индексной карты (.CUE)

REM GENRE ClassicalREM DATE 2010REM DISCID 8B0F7D0AREM COMMENT "ExactAudioCopy v1.0b4"PERFORMER "Johann Strauss II"TITLE "Spectacular Classics"FILE "Johann Strauss II - Spectacular Classics II.flac" WAVE TRACK 01 AUDIO TITLE "Annen Polka, OP 117" PERFORMER "Johann Strauss II" INDEX 01 00:00:00 TRACK 02 AUDIO TITLE "Artists Life, OP 316" PERFORMER "Johann Strauss II" INDEX 00 03:03:65 INDEX 01 03:08:07 TRACK 03 AUDIO TITLE "Emperor Waltz" PERFORMER "Johann Strauss II" INDEX 00 12:59:45 INDEX 01 13:03:30 TRACK 04 AUDIO TITLE "Million Waltz, OP 443" PERFORMER "Johann Strauss II" INDEX 00 25:00:57 INDEX 01 25:06:40 TRACK 05 AUDIO TITLE "Hungarian Polka, OP 332" PERFORMER "Johann Strauss II" INDEX 00 35:15:25 INDEX 01 35:22:47 TRACK 06 AUDIO TITLE "Light As A Feather, OP 319" PERFORMER "Johann Strauss II" INDEX 00 38:09:17 INDEX 01 38:15:62 TRACK 07 AUDIO TITLE "Love Songs Waltz, OP 114" PERFORMER "Johann Strauss II" INDEX 00 41:00:12 INDEX 01 41:04:52 TRACK 08 AUDIO TITLE "Persian March, OP 298" PERFORMER "Johann Strauss II" INDEX 00 50:48:07 INDEX 01 50:54:17 TRACK 09 AUDIO TITLE "Where The Lemon Trees Blossom Waltz, OP 364" PERFORMER "Johann Strauss II" INDEX 00 53:13:27 INDEX 01 53:20:30 TRACK 10 AUDIO TITLE "Luxury Train Polka, OP 181" PERFORMER "Johann Strauss II" INDEX 00 63:09:00 INDEX 01 63:14:65
Доп. информация: На подозрительной позиции звуковые артефакты отсутствуют.



Показать сообщения:    

Текущее время: 08-Дек 09:05

Часовой пояс: UTC + 3


Вы не можете начинать темы
Вы не можете отвечать на сообщения
Вы не можете редактировать свои сообщения
Вы не можете удалять свои сообщения
Вы не можете голосовать в опросах
Вы не можете прикреплять файлы к сообщениям
Вы не можете скачивать файлы