(Classical) Johann Strauss II - Spectacular Classics - 2010, FLAC (image+.cue) lossless


 

[Цитировать]

Johann Strauss II - Spectacular Classics
Жанр: Classical
Страна-производитель диска: Румыния
Год издания диска: 2010
Издатель (лейбл): Musicbank limited
Номер по каталогу: 640B3B08
Аудиокодек: FLAC
Тип рипа: image+.cue
Битрейт аудио: lossless
Продолжительность: 47:55
Источник: собственный рип
Наличие сканов в содержимом раздачи: да
Треклист:
1. The Blue Danube Waltz
London Symphony Orchestra (George Richter)
2. Vienna Blood Waltz
Vienna State Opera Orchestra (Albert Lizzio)
3. Tritsch Tratsch Polka
Vienna State Opera Orchestra (Albert Lizzio)
4. Voices Of Spring Waltz
Hamburg Symphony Orchestra (Robert Ashley)
5. The Radetzsky March
Vienna State Opera Orchestra (Albert Lizzio)
6. Roses From The South Waltz
Hamburg Symphony Orchestra (Robert Ashley)
7. Morning Papers Waltz
Hamburg Symphony Orchestra (Robert Ashley)
8. Tales Fom The Vienna Woods Waltz
Hamburg Symphony Orchestra (Robert Ashley)
Исполнители:
London Symphony Orchestra (George Richter)
Vienna State Opera Orchestra (Albert Lizzio)
Hamburg Symphony Orchestra (Robert Ashley)

Все раздачи серии Spectacular Classics

Spectacular Classics

Лог создания рипа

Exact Audio Copy V1.0 beta 4 from 7. December 2014
Отчёт EAC об извлечении, выполненном 18. января 2015, 22:24
Johann Strauss II / Apollo Classics
Дисковод: Optiarc DVD RW AD-7700S Adapter: 1 ID: 2
Режим чтения : ДостоверностьИспользование точного потока : ДаОтключение кэша аудио : ДаИспользование указателей C2 : Нет
Коррекция смещения при чтении : 48Способность читать области Lead-in и Lead-out : ДаЗаполнение пропущенных сэмплов тишиной : ДаУдаление блоков с тишиной в начале и конце : НетПри вычислениях CRC использовались нулевые сэмплы : ДаИнтерфейс : Встроенный Win32-интерфейс для Win NT/2000
Выходной формат : Пользовательский кодировщикВыбранный битрейт : 128 kBit/sКачество : ВысокийДобавление ID3-тега : НетУтилита сжатия : C:\Program Files (x86)\Exact Audio Copy\Flac\flac.exeДополнительные параметры : -V -8 -T "Date=%year%" -T "Genre=%genre%" %source%
TOC извлечённого CD
Трек | Старт | Длительность | Начальный сектор | Конечный сектор --------------------------------------------------------------------- 1 | 0:00.00 | 9:07.05 | 0 | 41029 2 | 9:07.05 | 5:29.50 | 41030 | 65754 3 | 14:36.55 | 2:42.62 | 65755 | 77966 4 | 17:19.42 | 7:07.55 | 77967 | 110046 5 | 24:27.22 | 2:21.63 | 110047 | 120684 6 | 26:49.10 | 10:04.57 | 120685 | 166041 7 | 36:53.67 | 3:37.13 | 166042 | 182329 8 | 40:31.05 | 7:24.25 | 182330 | 215654
Характеристики диапазона извлечения и сообщения об ошибках
Выбранный диапазон
Имя файла D:\Downloads\Apollo Classics\Johann Strauss\Johann Strauss II - Apollo Classics.wav
Подозрительная позиция 0:47:55
Пиковый уровень 89.1 % Скорость извлечения 4.6 X Качество диапазона 99.9 % CRC теста 251AF861 CRC копии 251AF861 Копирование завершено
Были ошибки
Конец отчёта
==== Контрольная сумма отчёта DD607CB80CB76BD5BFA721BE0848FB4D656A315D6ED8473D24502A506AD6309A ====

Содержание индексной карты (.CUE)

REM GENRE ClassicalREM DATE 2010REM DISCID 640B3B08REM COMMENT "ExactAudioCopy v1.0b4"PERFORMER "Johann Strauss II "TITLE "Spectacular Classics"FILE "Johann Strauss II - Spectacular Classics.flac" WAVE TRACK 01 AUDIO TITLE "The Blue Danube Waltz" PERFORMER "London Symphony Orchestra (George Richter)" INDEX 01 00:00:00 TRACK 02 AUDIO TITLE "Vienna Blood Waltz" PERFORMER "Vienna State Opera Orchestra (Albert Lizzio)" FLAGS DCP INDEX 00 09:05:05 INDEX 01 09:07:05 TRACK 03 AUDIO TITLE "Tritsch Tratsch Polka" PERFORMER "Vienna State Opera Orchestra (Albert Lizzio)" FLAGS DCP INDEX 00 14:34:55 INDEX 01 14:36:55 TRACK 04 AUDIO TITLE "Voices Of Spring Waltz" PERFORMER "Hamburg Symphony Orchestra (Robert Ashley)" FLAGS DCP INDEX 00 17:17:42 INDEX 01 17:19:42 TRACK 05 AUDIO TITLE "The Radetzsky March" PERFORMER "Vienna State Opera Orchestra (Albert Lizzio)" FLAGS DCP INDEX 00 24:25:22 INDEX 01 24:27:22 TRACK 06 AUDIO TITLE "Roses From The South Waltz" PERFORMER "Hamburg Symphony Orchestra (Robert Ashley)" FLAGS DCP INDEX 00 26:47:11 INDEX 01 26:49:10 TRACK 07 AUDIO TITLE "Morning Papers Waltz" PERFORMER "Hamburg Symphony Orchestra (Robert Ashley)" FLAGS DCP INDEX 00 36:51:67 INDEX 01 36:53:67 TRACK 08 AUDIO TITLE "Tales Fom The Vienna Woods Waltz" PERFORMER "Hamburg Symphony Orchestra (Robert Ashley)" FLAGS DCP INDEX 00 40:29:05 INDEX 01 40:31:05
Доп. информация: На подозрительной позиции звуковые артефакты отсутствуют.



Показать сообщения:    

Текущее время: 07-Дек 11:38

Часовой пояс: UTC + 3


Вы не можете начинать темы
Вы не можете отвечать на сообщения
Вы не можете редактировать свои сообщения
Вы не можете удалять свои сообщения
Вы не можете голосовать в опросах
Вы не можете прикреплять файлы к сообщениям
Вы не можете скачивать файлы