(Orchestral) Maurice Ravel - Orchestral versions of Gaspard de la nuit, Le Tombeau de Couperin, Menuet antique, Pavane, Alborada / Равель - Ночной Гаспар и др. оркестровки (Orchestre de Paris, Christoph Eschenbach) - 2005, APE (tracks+.cue) lossless


 

[Цитировать]

Maurice Ravel - Orchestral versions of Gaspard de la nuit, Le Tombeau de Couperin, Menuet antique, Pavane, Alborada
Жанр: Orchestral
Страна-производитель диска: Finland
Год издания диска: 2005
Издатель (лейбл): Ondine
Номер по каталогу: ODE1051-2
Дата записи: 2004
Аудиокодек: APE
Тип рипа: tracks+.cue
Битрейт аудио: lossless
Продолжительность: 73'44
Источник: скачано с
Наличие сканов в содержимом раздачи: да
Треклист:
Maurice Ravel (1875-1937)
01-06. Gaspard de la nuit - 1908 (orch. Marius Constant, 1991)
with text from three poems by Aloysius Bertrand)*
07-10. Le Tombeau de Couperin, suite -1914-17 (orch. Ravel, 1919)
11. Menuet antique - 1895 (orch. Ravel, 1929)
12. Pavane pour une infante defunte - 1899 (orch. Ravel, 1910)
13. Alborada del gracioso - 1904-05 (orch. Ravel)
Исполнители:
Orchestre de Paris
Christoph Eschenbach, conductor
Carole Bouquet, narrator*
Live recording in Musee Maurice Ravel, Monfort-l'Almaury, France

Лог создания рипа

Exact Audio Copy V0.99 prebeta 4 from 23. January 2008
EAC extraction logfile from 28. October 2009, 23:15
Orchestre de Paris, Christoph Eschenbach / Ravel - Gaspard de la nuit - Le Tombeau de Couperin
Used drive : HL-DT-STDVDRAM GSA-4120B Adapter: 0 ID: 0
Read mode : SecureUtilize accurate stream : YesDefeat audio cache : YesMake use of C2 pointers : No
Read offset correction : 667Overread into Lead-In and Lead-Out : NoFill up missing offset samples with silence : YesDelete leading and trailing silent blocks : NoNull samples used in CRC calculations : NoUsed interface : Installed external ASPI interfaceGap handling : Not detected, thus appended to previous track
Used output format : Monkey's Audio Lossless Encoder v3.99 DLLSample format : Fast Lossless Compression
TOC of the extracted CD
Track | Start | Length | Start sector | End sector --------------------------------------------------------- 1 | 0:00.00 | 1:30.50 | 0 | 6799 2 | 1:30.50 | 7:09.61 | 6800 | 39035 3 | 8:40.36 | 0:59.08 | 39036 | 43468 4 | 9:39.44 | 5:17.13 | 43469 | 67256 5 | 14:56.57 | 1:06.62 | 67257 | 72268 6 | 16:03.44 | 9:43.57 | 72269 | 116050 7 | 25:47.26 | 3:20.05 | 116051 | 131055 8 | 29:07.31 | 5:49.39 | 131056 | 157269 9 | 34:56.70 | 5:07.32 | 157270 | 180326 10 | 40:04.27 | 3:18.62 | 180327 | 195238 11 | 43:23.14 | 6:59.16 | 195239 | 226679 12 | 50:22.30 | 7:19.32 | 226680 | 259636 13 | 57:41.62 | 8:21.28 | 259637 | 297239 14 | 66:03.15 | 7:42.23 | 297240 | 331912
Track 1
Filename C:\TEMP\Ravel - Gaspard de la nuit - Ondine (text).ape
Peak level 16.0 % Track quality 99.8 % Copy CRC A8EB7CB2 Accurately ripped (confidence 1) [77A35F71] Copy OK
Track 2
Filename C:\TEMP\Ravel - Gaspard de la nuit - I. Ondine (orchestra).ape
Peak level 99.3 % Track quality 100.0 % Copy CRC CAE03B82 Accurately ripped (confidence 1) [7CFDD797] Copy OK
Track 3
Filename C:\TEMP\Ravel - Gaspard de la nuit - Le Gibet (text).ape
Peak level 12.9 % Track quality 99.8 % Copy CRC FC754FEA Accurately ripped (confidence 1) [500ECF62] Copy OK
Track 4
Filename C:\TEMP\Ravel - Gaspard de la nuit - II. Le Gibet (orchestra).ape
Peak level 24.1 % Track quality 100.0 % Copy CRC 6BF65606 Accurately ripped (confidence 1) [53F24543] Copy OK
Track 5
Filename C:\TEMP\Ravel - Gaspard de la nuit - Scarbo (text).ape
Peak level 11.2 % Track quality 100.0 % Copy CRC 6E7BCE9A Accurately ripped (confidence 1) [FDE32596] Copy OK
Track 6
Filename C:\TEMP\Ravel - Gaspard de la nuit - III. Scarbo (orchestra).ape
Peak level 100.0 % Track quality 99.9 % Copy CRC D78CBBA3 Accurately ripped (confidence 1) [A9428F70] Copy OK
Track 7
Filename C:\TEMP\Ravel - Le Tombeau de Couperin - I. Prйlude.ape
Peak level 50.4 % Track quality 100.0 % Copy CRC 5A73FCCF Accurately ripped (confidence 1) [FFB78810] Copy OK
Track 8
Filename C:\TEMP\Ravel - Le Tombeau de Couperin - II. Forlane.ape
Peak level 23.0 % Track quality 100.0 % Copy CRC 293F3B00 Accurately ripped (confidence 1) [6784F1F9] Copy OK
Track 9
Filename C:\TEMP\Ravel - Le Tombeau de Couperin - III. Menuet.ape
Peak level 45.1 % Track quality 100.0 % Copy CRC 09254AFD Accurately ripped (confidence 1) [84FBC588] Copy OK
Track 10
Filename C:\TEMP\Ravel - Le Tombeau de Couperin - IV. Rigaudon.ape
Peak level 73.1 % Track quality 100.0 % Copy CRC D20B07E4 Accurately ripped (confidence 1) [9DFFD2DB] Copy OK
Track 11
Filename C:\TEMP\Ravel - Menuet antique.ape
Peak level 79.5 % Track quality 100.0 % Copy CRC 6FAAB857 Accurately ripped (confidence 1) [23586DA1] Copy OK
Track 12
Filename C:\TEMP\Ravel - Pavane pour une infante dйfunte.ape
Peak level 43.1 % Track quality 100.0 % Copy CRC DF378484 Accurately ripped (confidence 1) [A06899C9] Copy OK
Track 13
Filename C:\TEMP\Ravel - Alborada del Gracioso.ape
Peak level 99.5 % Track quality 100.0 % Copy CRC EBB631B0 Accurately ripped (confidence 1) [DABCCF42] Copy OK
Track 14
Filename C:\TEMP\Ravel - Ondine (piano version).ape
Peak level 99.1 % Track quality 100.0 % Copy CRC EB06AA8E Accurately ripped (confidence 1) [03CD1E51] Copy OK
All tracks accurately ripped
No errors occurred
End of status report

Содержание индексной карты (.CUE)

FILE "Ravel - Gaspard de la nuit - Ondine (text).ape" APE TRACK 01 AUDIO INDEX 01 00:00:00FILE "Ravel - Gaspard de la nuit - I. Ondine (orchestra).ape" APE TRACK 02 AUDIO INDEX 01 00:00:00FILE "Ravel - Gaspard de la nuit - Le Gibet (text).ape" APE TRACK 03 AUDIO INDEX 01 00:00:00FILE "Ravel - Gaspard de la nuit - II. Le Gibet (orchestra).ape" APE TRACK 04 AUDIO INDEX 01 00:00:00FILE "Ravel - Gaspard de la nuit - Scarbo (text).ape" APE TRACK 05 AUDIO INDEX 01 00:00:00FILE "Ravel - Gaspard de la nuit - III. Scarbo (orchestra).ape" APE TRACK 06 AUDIO INDEX 01 00:00:00FILE "Ravel - Le Tombeau de Couperin - I. Prйlude.ape" APE TRACK 07 AUDIO PREGAP 00:02:00 INDEX 01 00:00:00FILE "Ravel - Le Tombeau de Couperin - II. Forlane.ape" APE TRACK 08 AUDIO INDEX 01 00:00:00FILE "Ravel - Le Tombeau de Couperin - III. Menuet.ape" APE TRACK 09 AUDIO INDEX 01 00:00:00FILE "Ravel - Le Tombeau de Couperin - IV. Rigaudon.ape" APE TRACK 10 AUDIO INDEX 01 00:00:00FILE "Ravel - Menuet antique.ape" APE TRACK 11 AUDIO PREGAP 00:02:00 INDEX 01 00:00:00FILE "Ravel - Pavane pour une infante dйfunte.ape" APE TRACK 12 AUDIO PREGAP 00:02:00 INDEX 01 00:00:00FILE "Ravel - Alborada del Gracioso.ape" APE TRACK 13 AUDIO PREGAP 00:02:00 INDEX 01 00:00:00FILE "Ravel - Ondine (piano version).ape" APE TRACK 14 AUDIO PREGAP 00:02:00 INDEX 01 00:00:00
Доп. информация: Оркестровые версии фортепианных произведений Мориса Равеля в исполнении Кристофа Эшенбаха и Оркестра Парижа. В программе: "Ночной Гаспар" (Призраки ночи) - оркестровка Мариуса Констана, с текстом Алоизиюса Бертрана (текст читает французская актриса Кароль Буке), а также оригинальные оркестровки композитора - "Гробница Куперена", "Античный менуэт", "Павана", "Альборада". Релиз приурочен к 20-летию финского лейбла, названного по имени пьесы из "Гаспара". Концертная запись из дома-музея Равеля в Монфор-Л’Амори.
Равель - Фортепианное трио в оркестровке Тортелье (Yan Pascal Tortelier, Ulster Orchestra) - 1993
Равель - Квартет в оркестровке Баршая (Scottish Ensemble) - 2003



Показать сообщения:    

Текущее время: 10-Дек 00:21

Часовой пояс: UTC + 3


Вы не можете начинать темы
Вы не можете отвечать на сообщения
Вы не можете редактировать свои сообщения
Вы не можете удалять свои сообщения
Вы не можете голосовать в опросах
Вы не можете прикреплять файлы к сообщениям
Вы не можете скачивать файлы