(Orchestral) Борис Тищенко - Симфония №5 (М.Шостакович) | Концерт для фортепиано, флейты и струнных (В.Зверев • А.Наседкин • Э.Серов) - 2013, FLAC (image+.cue) lossless


 

[Цитировать]

Boris Tishchenko
Symphony No.5 | Concerto for flute, piano and strings-
-
- Жанр: Orchestral
Страна-производитель диска: Россия
Год издания диска: 2013
Издатель (лейбл): Northern Flowers
Дата записи: 1978
Аудиокодек: FLAC
Тип рипа: image+.cue
Битрейт аудио: lossless
Продолжительность: 77'48''
Источник: собственный рип
Наличие сканов в содержимом раздачи: да
Треклист:
[01] Симфония №5: I. Prelude
[02] II. Dedication
[03] III. Sonata
[04] IV. Interlude
[05] V. Rondo
[06] Концерт для фортепиано, флейты и струнных: I. Lento rubato
[07] II. Allegretto
[08] III. Allegro
[09] IV. Lento rubato
[10] V. Allegretto
Исполнители:
Валентин Зверев, флейта
Алексей Наседкин, фортепиано
Солисты Государственного Академического Симфонического Оркестра - Эдуард Серов [6-10]
Симфонический Оркестр Всесоюзного Радио - Максим Шостакович [1-5]-

Лог создания рипа

Exact Audio Copy V1.0 beta 4 from 7. December 2014
EAC extraction logfile from 14. February 2015, 18:39
Maxim Shostakovich, Edward Serov / Tishchenko - Symphony No.5
Used drive : HL-DT-STDVD+-RW GU90N Adapter: 1 ID: 0
Read mode : SecureUtilize accurate stream : YesDefeat audio cache : YesMake use of C2 pointers : No
Read offset correction : 102Overread into Lead-In and Lead-Out : NoFill up missing offset samples with silence : YesDelete leading and trailing silent blocks : NoNull samples used in CRC calculations : YesUsed interface : Native Win32 interface for Win NT & 2000
Used output format : User Defined EncoderSelected bitrate : 1024 kBit/sQuality : HighAdd ID3 tag : NoCommand line compressor : C:\Program Files (x86)\FLAC\flac.exeAdditional command line options : -T "COMMENT=rip by el coronel" -8 -V %source%
TOC of the extracted CD
Track | Start | Length | Start sector | End sector --------------------------------------------------------- 1 | 0:00.00 | 9:56.30 | 0 | 44729 2 | 9:56.30 | 8:08.08 | 44730 | 81337 3 | 18:04.38 | 5:40.01 | 81338 | 106838 4 | 23:44.39 | 9:57.46 | 106839 | 151659 5 | 33:42.10 | 11:04.64 | 151660 | 201523 6 | 44:46.74 | 8:21.13 | 201524 | 239111 7 | 53:08.12 | 5:44.28 | 239112 | 264939 8 | 58:52.40 | 4:39.08 | 264940 | 285872 9 | 63:31.48 | 7:24.70 | 285873 | 319242 10 | 70:56.43 | 6:51.36 | 319243 | 350103
Range status and errors
Selected range
Filename F:\Music\Tishchenko - Symhony No.5\Maxim Shostakovich, Edward Serov - Tishchenko - Symphony No.5.wav
Peak level 100.0 % Extraction speed 3.9 X Range quality 100.0 % Test CRC 13C784B8 Copy CRC 13C784B8 Copy OK
No errors occurred
AccurateRip summary
Track 1 not present in databaseTrack 2 not present in databaseTrack 3 not present in databaseTrack 4 not present in databaseTrack 5 not present in databaseTrack 6 not present in databaseTrack 7 not present in databaseTrack 8 not present in databaseTrack 9 not present in databaseTrack 10 not present in database
None of the tracks are present in the AccurateRip database
End of status report
---- CUETools DB Plugin V2.1.4
[CTDB TOCID: 9eWsxfBI_PJVjJyV2rLutZMYDoQ-] disk not present in databaseSubmit result: 9eWsxfBI_PJVjJyV2rLutZMYDoQ- has been uploaded
==== Log checksum 495AC6DFCEA9D9C8579C8A5F5C19C2795078E6862490420E6AACB82C270AC543 ====

Содержание индексной карты (.CUE)

REM GENRE AvantgardeREM DATE 2013REM DISCID 92123C0AREM COMMENT "ExactAudioCopy v1.0b4"PERFORMER "Maxim Shostakovich, Edward Serov"TITLE "Tishchenko - Symphony No.5"FILE "Maxim Shostakovich, Edward Serov - Tishchenko - Symphony No.5.flac" WAVE TRACK 01 AUDIO TITLE "Symphony No.5: I. Prelude" PERFORMER "USSR Radio and TV Symphony Orchestra - M.Shostakovich" INDEX 01 00:00:00 TRACK 02 AUDIO TITLE "II. Dedication" PERFORMER "USSR Radio and TV Symphony Orchestra - M.Shostakovich" INDEX 01 09:56:30 TRACK 03 AUDIO TITLE "III. Sonata" PERFORMER "USSR Radio and TV Symphony Orchestra - M.Shostakovich" INDEX 01 18:04:38 TRACK 04 AUDIO TITLE "IV. Interlude" PERFORMER "USSR Radio and TV Symphony Orchestra - M.Shostakovich" INDEX 01 23:44:39 TRACK 05 AUDIO TITLE "V. Rondo" PERFORMER "USSR Radio and TV Symphony Orchestra - M.Shostakovich" INDEX 01 33:42:10 TRACK 06 AUDIO TITLE "Concerto for Flute, Piano and Strings: I. Lento rubato" PERFORMER "V.Zverev, A.Nasedkin, USSr State Symphony Orchestra - E.Serov" INDEX 01 44:46:74 TRACK 07 AUDIO TITLE "II. Allegretto" PERFORMER "V.Zverev, A.Nasedkin, USSr State Symphony Orchestra - E.Serov" INDEX 01 53:08:12 TRACK 08 AUDIO TITLE "III. Allegro" PERFORMER "V.Zverev, A.Nasedkin, USSr State Symphony Orchestra - E.Serov" INDEX 01 58:52:40 TRACK 09 AUDIO TITLE "IV. Lento rubato" PERFORMER "V.Zverev, A.Nasedkin, USSr State Symphony Orchestra - E.Serov" INDEX 01 63:31:48 TRACK 10 AUDIO TITLE "V. Allegretto" PERFORMER "V.Zverev, A.Nasedkin, USSr State Symphony Orchestra - E.Serov" INDEX 01 70:56:43
-



Показать сообщения:    

Текущее время: 11-Дек 11:07

Часовой пояс: UTC + 3


Вы не можете начинать темы
Вы не можете отвечать на сообщения
Вы не можете редактировать свои сообщения
Вы не можете удалять свои сообщения
Вы не можете голосовать в опросах
Вы не можете прикреплять файлы к сообщениям
Вы не можете скачивать файлы