(Orchestral) Альфред Шнитке - Симфония №3 (Rundfunk-Sinfonieorchester Berlin - Владимир Юровский) - 2014, FLAC (image+.cue) lossless


 

[Цитировать]

Альфред Шнитке 3rd SYMPHONY
Rundfunk-Sinfonieorchester Berlin - Vladimir Jurowski
-
-
- Жанр: Orchestral
Страна-производитель диска: Germany
Год издания диска: 2014
Издатель (лейбл): Pentatone
Дата записи: 07.2014
Аудиокодек: FLAC
Тип рипа: image+.cue
Битрейт аудио: lossless
Продолжительность: 52'08''
Источник: собственный рип
Наличие сканов в содержимом раздачи: да
Треклист:
[01] I. Moderato
[02] II. Allegro
[03] III. Allegro pesante
[04] IV. Adagio
Исполнители:
Rundfunk-Sinfonieorchester Berlin - Владимир Юровский
-

Лог создания рипа

Exact Audio Copy V1.0 beta 4 from 7. December 2014
EAC extraction logfile from 6. March 2015, 18:19
Rundfunk-Sinfonieorchester Berlin - Vladimir Jurowski / Schnittke - Symphonie Nr.3
Used drive : HL-DT-STDVD+-RW GU90N Adapter: 1 ID: 0
Read mode : SecureUtilize accurate stream : YesDefeat audio cache : YesMake use of C2 pointers : No
Read offset correction : 102Overread into Lead-In and Lead-Out : NoFill up missing offset samples with silence : YesDelete leading and trailing silent blocks : NoNull samples used in CRC calculations : YesUsed interface : Native Win32 interface for Win NT & 2000
Used output format : User Defined EncoderSelected bitrate : 1024 kBit/sQuality : HighAdd ID3 tag : NoCommand line compressor : C:\Program Files (x86)\FLAC\flac.exeAdditional command line options : -T "COMMENT=rip by el coronel" -8 -V %source%
TOC of the extracted CD
Track | Start | Length | Start sector | End sector --------------------------------------------------------- 1 | 0:00.00 | 11:21.03 | 0 | 51077 2 | 11:21.03 | 13:22.48 | 51078 | 111275 3 | 24:43.51 | 8:15.36 | 111276 | 148436 4 | 32:59.12 | 19:08.44 | 148437 | 234580
Range status and errors
Selected range
Filename F:\Music\Schnittke 3 Jurowski\CD.wav
Peak level 96.1 % Extraction speed 4.3 X Range quality 100.0 % Test CRC 79FEDCF9 Copy CRC 79FEDCF9 Copy OK
No errors occurred
AccurateRip summary
Track 1 not present in databaseTrack 2 not present in databaseTrack 3 not present in databaseTrack 4 not present in database
None of the tracks are present in the AccurateRip database
End of status report
---- CUETools DB Plugin V2.1.4
[CTDB TOCID: .rLA8eKgO3lVOzl.EWdJckyuPRs-] disk not present in databaseSubmit result: .rLA8eKgO3lVOzl.EWdJckyuPRs- has been uploaded
==== Log checksum E947E31006763E1ADE4BD949CF06BB5D05BE710B2446A5859C0D7A08E0BA293E ====

Содержание индексной карты (.CUE)

REM GENRE ClassicalREM DATE 2014REM DISCID 380C3704REM COMMENT "ExactAudioCopy v1.0b4"CATALOG 0827949048562PERFORMER "Rundfunk-Sinfonieorchester Berlin - Vladimir Jurowski"TITLE "Schnittke - Symphonie Nr.3"FILE "CD.flac" WAVE TRACK 01 AUDIO TITLE "I. Moderato" PERFORMER "Rundfunk-Sinfonieorchester Berlin - Vladimir Jurowski" ISRC NLE421402701 INDEX 01 00:00:00 TRACK 02 AUDIO TITLE "II. Allegro" PERFORMER "Rundfunk-Sinfonieorchester Berlin - Vladimir Jurowski" ISRC NLE421402702 INDEX 01 11:21:03 TRACK 03 AUDIO TITLE "III. Allegro pesante" PERFORMER "Rundfunk-Sinfonieorchester Berlin - Vladimir Jurowski" ISRC NLE421402703 INDEX 01 24:43:51 TRACK 04 AUDIO TITLE "IV. Adagio" PERFORMER "Rundfunk-Sinfonieorchester Berlin - Vladimir Jurowski" ISRC NLE421402703 INDEX 01 32:59:12
-



Показать сообщения:    

Текущее время: 10-Дек 15:47

Часовой пояс: UTC + 3


Вы не можете начинать темы
Вы не можете отвечать на сообщения
Вы не можете редактировать свои сообщения
Вы не можете удалять свои сообщения
Вы не можете голосовать в опросах
Вы не можете прикреплять файлы к сообщениям
Вы не можете скачивать файлы