(Orchestral) Отторино Респиги - Балкис, царица Савская; Метаморфозы к XII ладу / Ottorino Respighi - Belkis, regina di Saba; Metamorphoseon modi XII (Philharmonia Orchestra London, Geoffrey Simon) - 1985, FLAC (tracks+.cue) lossless


 

[Цитировать]

Respighi - Belkis, regina di Saba; Metamorphoseon modi XII
Жанр: Orchestral
Страна-производитель диска: UK
Год издания диска: 1985
Издатель (лейбл): Chandos
Номер по каталогу: CHAN8405
Дата записи: 1985
Аудиокодек: FLAC
Тип рипа: tracks+.cue
Битрейт аудио: lossless
Продолжительность: 48'07
Источник: скачано с
Наличие сканов в содержимом раздачи: да
Треклист:
Ottorino Respighi (1879-1936)
Belkis, regina di Saba, suite dal balletto, P. 177 (1931-34) 22'30
I. Il sogno di Salomone
II. Danza guerresca
III. La danza di Belkis all'aurora
IV. Danza orgiastica
Metamorphoseon modi XII, tema e variazioni per orchestra, P. 169 (1930) 25'36
I. Tema (Andante moderato)
II. Modus I (Moderato non troppo)
III. Modus II (Allegretto)
IV. Modus III (Lento)
V. Modus IV (Lento espressivo)
VI. Modus V (Molto vivace)
VII. Modus VI (Vivace)
VIII. Modus VII (Cadenza)
IX. Modus VIII (Andantino mosso)
X. Modus IX (Lento non troppo)
XI. Modus X (Molto allegro)
XII. Modus XI (Molto allegro)
XIII. Modus XII (Vivo non troppo)
Исполнители:
Philharmonia Orchestra London
Geoffrey Simon, conductor
Recorded in All Saints' Church, London, Jan 1985

Лог создания рипа

Exact Audio Copy V0.99 prebeta 5 from 4. May 2009
EAC extraction logfile from 25. January 2010, 18:18
Unknown Artist / Unknown Title
Used drive : TSSTcorpCD/DVDW TS-H552B Adapter: 1 ID: 1
Read mode : SecureUtilize accurate stream : YesDefeat audio cache : YesMake use of C2 pointers : No
Read offset correction : 12Overread into Lead-In and Lead-Out : NoFill up missing offset samples with silence : YesDelete leading and trailing silent blocks : NoNull samples used in CRC calculations : YesUsed interface : Native Win32 interface for Win NT & 2000Gap handling : Appended to previous track
Used output format : User Defined EncoderSelected bitrate : 320 kBit/sQuality : HighAdd ID3 tag : NoCommand line compressor : C:\Program Files\Exact Audio Copy\Flac\flac.exeAdditional command line options : -V -8 -T "artist=%a" -T "title=%t" -T "album=%g" -T "date=%y" -T "tracknumber=%n" -T "genre=%m" %s
TOC of the extracted CD
Track | Start | Length | Start sector | End sector --------------------------------------------------------- 1 | 0:00.32 | 8:02.00 | 32 | 36181 2 | 8:02.32 | 2:54.00 | 36182 | 49231 3 | 10:56.32 | 6:21.00 | 49232 | 77806 4 | 17:17.32 | 5:19.00 | 77807 | 101731 5 | 22:36.32 | 1:49.00 | 101732 | 109906 6 | 24:25.32 | 1:53.00 | 109907 | 118381 7 | 26:18.32 | 1:38.05 | 118382 | 125736 8 | 27:56.37 | 2:22.13 | 125737 | 136399 9 | 30:18.50 | 2:38.37 | 136400 | 148286 10 | 32:57.12 | 0:36.58 | 148287 | 151044 11 | 33:33.70 | 0:43.62 | 151045 | 154331 12 | 34:17.57 | 6:38.63 | 154332 | 184244 13 | 40:56.45 | 1:20.62 | 184245 | 190306 14 | 42:17.32 | 2:19.45 | 190307 | 200776 15 | 44:37.02 | 0:41.15 | 200777 | 203866 16 | 45:18.17 | 0:51.28 | 203867 | 207719 17 | 46:09.45 | 2:03.62 | 207720 | 217006
Track 1
Filename C:\Program Files\Exact Audio Copy\Flac\Unknown Artist - - Unknown Title\01 - Track01.wav
Pre-gap length 0:00:02.42
Peak level 100.0 % Track quality 100.0 % Test CRC 4366E040 Copy CRC 4366E040 Accurately ripped (confidence 4) [DD7AE5FB] Copy OK
Track 2
Filename C:\Program Files\Exact Audio Copy\Flac\Unknown Artist - - Unknown Title\02 - Track02.wav
Pre-gap length 0:00:04.00
Peak level 100.0 % Track quality 99.9 % Test CRC 632BDC41 Copy CRC 632BDC41 Accurately ripped (confidence 4) [DFD915BA] Copy OK
Track 3
Filename C:\Program Files\Exact Audio Copy\Flac\Unknown Artist - - Unknown Title\03 - Track03.wav
Pre-gap length 0:00:04.00
Peak level 100.0 % Track quality 100.0 % Test CRC 904D93A0 Copy CRC 904D93A0 Accurately ripped (confidence 4) [06BC6428] Copy OK
Track 4
Filename C:\Program Files\Exact Audio Copy\Flac\Unknown Artist - - Unknown Title\04 - Track04.wav
Pre-gap length 0:00:02.00
Peak level 100.0 % Track quality 100.0 % Test CRC 3ADEA48A Copy CRC 3ADEA48A Accurately ripped (confidence 4) [DF214FE3] Copy OK
Track 5
Filename C:\Program Files\Exact Audio Copy\Flac\Unknown Artist - - Unknown Title\05 - Track05.wav
Pre-gap length 0:00:06.00
Peak level 74.7 % Track quality 100.0 % Test CRC 91DD2A4D Copy CRC 91DD2A4D Accurately ripped (confidence 4) [D04C14E1] Copy OK
Track 6
Filename C:\Program Files\Exact Audio Copy\Flac\Unknown Artist - - Unknown Title\06 - Track06.wav
Peak level 73.7 % Track quality 100.0 % Test CRC 81AD5D5E Copy CRC 81AD5D5E Accurately ripped (confidence 4) [5C96384B] Copy OK
Track 7
Filename C:\Program Files\Exact Audio Copy\Flac\Unknown Artist - - Unknown Title\07 - Track07.wav
Peak level 100.0 % Track quality 100.0 % Test CRC BD84EE75 Copy CRC BD84EE75 Accurately ripped (confidence 4) [F0777667] Copy OK
Track 8
Filename C:\Program Files\Exact Audio Copy\Flac\Unknown Artist - - Unknown Title\08 - Track08.wav
Peak level 63.9 % Track quality 100.0 % Test CRC 66FA5083 Copy CRC 66FA5083 Accurately ripped (confidence 4) [CEED68EB] Copy OK
Track 9
Filename C:\Program Files\Exact Audio Copy\Flac\Unknown Artist - - Unknown Title\09 - Track09.wav
Peak level 100.0 % Track quality 100.0 % Test CRC F1CD3D74 Copy CRC F1CD3D74 Accurately ripped (confidence 4) [F0A4E5CE] Copy OK
Track 10
Filename C:\Program Files\Exact Audio Copy\Flac\Unknown Artist - - Unknown Title\10 - Track10.wav
Peak level 57.7 % Track quality 100.0 % Test CRC 6409F077 Copy CRC 6409F077 Accurately ripped (confidence 4) [DCE7839D] Copy OK
Track 11
Filename C:\Program Files\Exact Audio Copy\Flac\Unknown Artist - - Unknown Title\11 - Track11.wav
Peak level 94.9 % Track quality 99.7 % Test CRC 1D47A168 Copy CRC 1D47A168 Accurately ripped (confidence 4) [35AEB7E3] Copy OK
Track 12
Filename C:\Program Files\Exact Audio Copy\Flac\Unknown Artist - - Unknown Title\12 - Track12.wav
Peak level 24.3 % Track quality 100.0 % Test CRC D9E95FDA Copy CRC D9E95FDA Cannot be verified as accurate (confidence 7) [3AA71167], AccurateRip returned [C38E934F] Copy OK
Track 13
Filename C:\Program Files\Exact Audio Copy\Flac\Unknown Artist - - Unknown Title\13 - Track13.wav
Peak level 45.9 % Track quality 100.0 % Test CRC 5AC5FBCB Copy CRC 5AC5FBCB Cannot be verified as accurate (confidence 8) [188E9162], AccurateRip returned [CE797C88] Copy OK
Track 14
Filename C:\Program Files\Exact Audio Copy\Flac\Unknown Artist - - Unknown Title\14 - Track14.wav
Peak level 47.1 % Track quality 100.0 % Test CRC 228C78DF Copy CRC 228C78DF Accurately ripped (confidence 4) [2CD4E6DF] Copy OK
Track 15
Filename C:\Program Files\Exact Audio Copy\Flac\Unknown Artist - - Unknown Title\15 - Track15.wav
Peak level 43.3 % Track quality 99.7 % Test CRC 0B7BE21B Copy CRC 0B7BE21B Accurately ripped (confidence 4) [A51D80FD] Copy OK
Track 16
Filename C:\Program Files\Exact Audio Copy\Flac\Unknown Artist - - Unknown Title\16 - Track16.wav
Peak level 100.0 % Track quality 100.0 % Test CRC 6FF89485 Copy CRC 6FF89485 Accurately ripped (confidence 4) [A15141E2] Copy OK
Track 17
Filename C:\Program Files\Exact Audio Copy\Flac\Unknown Artist - - Unknown Title\17 - Track17.wav
Peak level 100.0 % Track quality 100.0 % Test CRC 7EA99F3E Copy CRC 7EA99F3E Accurately ripped (confidence 4) [FC9E1320] Copy OK
15 track(s) accurately ripped 2 track(s) could not be verified as accurate
Some tracks could not be verified as accurate
No errors occurred
End of status report

Содержание индексной карты (.CUE)

REM DISCID 110B4D11REM COMMENT "ExactAudioCopy v0.99pb5"FILE "Unknown Artist - - Unknown Title\01 - Track01.wav" WAVE TRACK 01 AUDIO PREGAP 00:00:32 INDEX 01 00:00:00 TRACK 02 AUDIO INDEX 00 07:58:00FILE "Unknown Artist - - Unknown Title\02 - Track02.wav" WAVE INDEX 01 00:00:00 TRACK 03 AUDIO INDEX 00 02:50:00FILE "Unknown Artist - - Unknown Title\03 - Track03.wav" WAVE INDEX 01 00:00:00 TRACK 04 AUDIO INDEX 00 06:19:00FILE "Unknown Artist - - Unknown Title\04 - Track04.wav" WAVE INDEX 01 00:00:00 TRACK 05 AUDIO INDEX 00 05:13:00FILE "Unknown Artist - - Unknown Title\05 - Track05.wav" WAVE INDEX 01 00:00:00FILE "Unknown Artist - - Unknown Title\06 - Track06.wav" WAVE TRACK 06 AUDIO INDEX 01 00:00:00FILE "Unknown Artist - - Unknown Title\07 - Track07.wav" WAVE TRACK 07 AUDIO INDEX 01 00:00:00FILE "Unknown Artist - - Unknown Title\08 - Track08.wav" WAVE TRACK 08 AUDIO INDEX 01 00:00:00FILE "Unknown Artist - - Unknown Title\09 - Track09.wav" WAVE TRACK 09 AUDIO INDEX 01 00:00:00FILE "Unknown Artist - - Unknown Title\10 - Track10.wav" WAVE TRACK 10 AUDIO INDEX 01 00:00:00FILE "Unknown Artist - - Unknown Title\11 - Track11.wav" WAVE TRACK 11 AUDIO INDEX 01 00:00:00FILE "Unknown Artist - - Unknown Title\12 - Track12.wav" WAVE TRACK 12 AUDIO INDEX 01 00:00:00FILE "Unknown Artist - - Unknown Title\13 - Track13.wav" WAVE TRACK 13 AUDIO INDEX 01 00:00:00FILE "Unknown Artist - - Unknown Title\14 - Track14.wav" WAVE TRACK 14 AUDIO INDEX 01 00:00:00FILE "Unknown Artist - - Unknown Title\15 - Track15.wav" WAVE TRACK 15 AUDIO INDEX 01 00:00:00FILE "Unknown Artist - - Unknown Title\16 - Track16.wav" WAVE TRACK 16 AUDIO INDEX 01 00:00:00FILE "Unknown Artist - - Unknown Title\17 - Track17.wav" WAVE TRACK 17 AUDIO INDEX 01 00:00:00
Доп. информация: "Балкис, царица Савская" (1931) - пожалуй, лучший из всех пяти балетов Респиги. В этом балете композитор использовал интонации арабского и еврейского фольклора, высокий артистизм и оркестровое мастерство, унаследованное от Римского-Корсакова. В 1934 году из 80-минутного представления композитор составил сюиту, которая исполняется как оригинальное сочинение. Первая сцена избражает освещённый факелами гарем царя Соломона в Иерусалиме и его самого задумчиво смотрящего на звездное небо. Торжественная маршеобразная тема знаменует появление царицы Савской. Трогательная встреча происходит на фоне выразительного соло виолончели и страстной любовной темы. Следующая сцена - военный танец с впечатляющим боем барабанов. Негритянские воины танцуют размахивая пиками на фоне синкопированного джазового ритма. Следующий номер - эротичный танец Балкис на рассвете. Финал балета - оргиастическая вакханалия.
Метаморфозы к XII ладу (1930) - последнее оркестровое сочинение Респиги. Оно было написано к 50-летию Бостонского оркестра по заказу Кусевицкого (как "Симфония псалмов" Стравинского, симфонии Прокофьева, Хиндемита, Русселя). Видимо на фоне модерновых композиций Респиги не хотел выглядеть консерватором, отказался от излюбленной программности, выбрал абстрактный язык и остросовременный жанр - Концерт для оркестра в формате тематических вариаций по всем 12-ти средневековым григорианским ладам. Несмотря на непривычный для Респиги стиль, музыка"Метаморфоз" очаровывает своеобразной архаической поэтичностью.
Отторино Респиги - Витражи собора & Бразильские впечатления (Philharmonia Orchestra London, Geoffrey Simon)



Показать сообщения:    

Текущее время: 07-Дек 00:51

Часовой пояс: UTC + 3


Вы не можете начинать темы
Вы не можете отвечать на сообщения
Вы не можете редактировать свои сообщения
Вы не можете удалять свои сообщения
Вы не можете голосовать в опросах
Вы не можете прикреплять файлы к сообщениям
Вы не можете скачивать файлы