(Classical) Mendelssohn in Birmingham, Vol.1: The Hebrides; Symphonies Nos. 4 & 5 - City of Birmingham Symphony Orchestra, Edward Gardner - 2014, FLAC (image+.cue) lossless


 

[Цитировать]

Mendelssohn in Birmingham, Vol.1: The Hebrides; Symphonies Nos. 4 & 5 - City of Birmingham Symphony Orchestra, Edward Gardner
Жанр: Classical
Страна-производитель диска: UK
Год издания диска: 2014
Издатель (лейбл): Chandos Records
Номер по каталогу: CHSA 5132
Дата записи: 2013
Аудиокодек: FLAC
Тип рипа: image+.cue
Битрейт аудио: lossless
Продолжительность: 66:04
Источник: собственный рип
Наличие сканов в содержимом раздачи: да
Треклист:
Felix Mendelssohn (1809-1847)
[1] The Hebrides, Op.26
[2]-[5] Symphony No.5 in D major, Op.107 'Reformation'
[6]-[9] Symphony No.4 in A major, Op.90 'Italian'
Исполнители:
City of Birmingham Symphony Orchestra
Edward Gardner

Лог создания рипа

Exact Audio Copy V1.0 beta 3 from 29. August 2011
EAC extraction logfile from 19. November 2014, 0:43
City of Birmingham Symphony Orchestra, Edward Gardner / Mendelssohn in Birmingham, Volume 1
Used drive : HL-DT-STDVDRAM GU70N Adapter: 0 ID: 0
Read mode : SecureUtilize accurate stream : YesDefeat audio cache : YesMake use of C2 pointers : No
Read offset correction : 48Overread into Lead-In and Lead-Out : NoFill up missing offset samples with silence : YesDelete leading and trailing silent blocks : NoNull samples used in CRC calculations : YesUsed interface : Native Win32 interface for Win NT & 2000
Used output format : User Defined EncoderSelected bitrate : 128 kBit/sQuality : HighAdd ID3 tag : NoCommand line compressor : C:\Program Files (x86)\Exact Audio Copy\Flac\flac.exeAdditional command line options : -V -8 -T "Date=%year%" -T "Genre=%genre%" %source%
TOC of the extracted CD
Track | Start | Length | Start sector | End sector --------------------------------------------------------- 1 | 0:00.00 | 10:00.28 | 0 | 45027 2 | 10:00.28 | 11:02.00 | 45028 | 94677 3 | 21:02.28 | 5:12.35 | 94678 | 118112 4 | 26:14.63 | 3:28.04 | 118113 | 133716 5 | 29:42.67 | 8:05.71 | 133717 | 170162 6 | 37:48.63 | 10:17.00 | 170163 | 216437 7 | 48:05.63 | 6:06.40 | 216438 | 243927 8 | 54:12.28 | 6:26.65 | 243928 | 272942 9 | 60:39.18 | 5:23.57 | 272943 | 297224
Range status and errors
Selected range
Filename C:\temp\CHSA_5132 - Mendelssohn in Birmingham, Vol.1\Mendelssohn in Birmingham, Volume 1.wav
Peak level 97.6 % Extraction speed 2.3 X Range quality 100.0 % Test CRC 5C2F0876 Copy CRC 5C2F0876 Copy OK
No errors occurred
AccurateRip summary
Track 1 accurately ripped (confidence 3) [06E4EA91] (AR v2)Track 2 accurately ripped (confidence 3) [3BB0D1E0] (AR v2)Track 3 accurately ripped (confidence 3) [4D4AC19C] (AR v2)Track 4 accurately ripped (confidence 3) [7DC17E25] (AR v2)Track 5 accurately ripped (confidence 3) [7A6C3F53] (AR v2)Track 6 accurately ripped (confidence 3) [3F6F7DAB] (AR v2)Track 7 accurately ripped (confidence 3) [879D3067] (AR v2)Track 8 accurately ripped (confidence 3) [165B66E1] (AR v2)Track 9 accurately ripped (confidence 3) [E7D67100] (AR v2)
All tracks accurately ripped
End of status report
==== Log checksum ABC0EDBF4F32D91C9164C0884E0DA20743D8538189164259DAB57026FB071CA3 ====



Показать сообщения:    

Текущее время: 10-Дек 21:36

Часовой пояс: UTC + 3


Вы не можете начинать темы
Вы не можете отвечать на сообщения
Вы не можете редактировать свои сообщения
Вы не можете удалять свои сообщения
Вы не можете голосовать в опросах
Вы не можете прикреплять файлы к сообщениям
Вы не можете скачивать файлы