(Classical) Antonio Vivaldi - Spectacular Classics II - 2010, FLAC (image+.cue) lossless


 

[Цитировать]

Antonio Vivaldi - Spectacular Classics II
Жанр: Classical
Страна-производитель диска: Румыния
Год издания диска: 2010
Издатель (лейбл): Musicbank limited
Номер по каталогу: 1A0E7903
Аудиокодек: FLAC
Тип рипа: image+.cue
Битрейт аудио: lossless
Продолжительность: 61:45
Источник: собственный рип
Наличие сканов в содержимом раздачи: да
Треклист:
1. The Four Seasons, Concerti Grossi, OP 8 Nos. 1-4
i Spring
ii Summer
iii Autumn
iv Winter

Salzburg Baroque Orchestra (Hans-Jurgen Walther)
2. Concerto for Flute and Orchestra No. 2 in G minor, Op. 10 ('La Notte')
Salzburg Baroque Orchestra (Hans-Jurgen Walther) - Soloist - Kurt Redi
3. Concerto for Wind, Violin and Strings in F major
Salzburg Baroque Orchestra (Hans-Jurgen Walther)
Исполнители:
Salzburg Baroque Orchestra (Hans-Jurgen Walther)

Все раздачи серии Spectacular Classics

Spectacular Classics

Лог создания рипа

Exact Audio Copy V1.0 beta 4 from 7. December 2014
Отчёт EAC об извлечении, выполненном 25. января 2015, 13:04
Various Artists / Spectacular Classics
Дисковод: Optiarc DVD RW AD-7700S Adapter: 1 ID: 2
Режим чтения : ДостоверностьИспользование точного потока : ДаОтключение кэша аудио : ДаИспользование указателей C2 : Нет
Коррекция смещения при чтении : 48Способность читать области Lead-in и Lead-out : ДаЗаполнение пропущенных сэмплов тишиной : ДаУдаление блоков с тишиной в начале и конце : НетПри вычислениях CRC использовались нулевые сэмплы : ДаИнтерфейс : Встроенный Win32-интерфейс для Win NT/2000
Выходной формат : Пользовательский кодировщикВыбранный битрейт : 128 kBit/sКачество : ВысокийДобавление ID3-тега : НетУтилита сжатия : C:\Program Files (x86)\Exact Audio Copy\Flac\flac.exeДополнительные параметры : -V -8 -T "Date=%year%" -T "Genre=%genre%" %source%
TOC извлечённого CD
Трек | Старт | Длительность | Начальный сектор | Конечный сектор --------------------------------------------------------------------- 1 | 0:00.32 | 41:45.65 | 32 | 187971 2 | 41:46.22 | 9:56.73 | 187972 | 232744 3 | 51:43.20 | 10:02.22 | 232745 | 277916
Характеристики диапазона извлечения и сообщения об ошибках
Выбранный диапазон
Имя файла D:\Downloads\Spectacular Classics\Vivaldi 2\Various Artists - Spectacular Classics.wav
Пиковый уровень 77.6 % Скорость извлечения 4.9 X Качество диапазона 100.0 % CRC теста DC102A9A CRC копии DC102A9A Копирование... OK
Ошибок не произошло
Конец отчёта
==== Контрольная сумма отчёта 7922AC595E82249302D03043B07B8EF9DB654B51AAE07444CAF51F1636CC6A0C ====

Содержание индексной карты (.CUE)

REM GENRE ClassicalREM DATE 2010REM DISCID 1A0E7903REM COMMENT "ExactAudioCopy v1.0b4"PERFORMER "Antonio Vivaldi"TITLE "Spectacular Classics"FILE "Antonio Vivaldi - Spectacular Classics II.flac" WAVE TRACK 01 AUDIO TITLE "Concerti Grossi, Op. 8 Nos. 1-4 'The Four Seasons': Spring / Summer / Autumn ..." PERFORMER "Antonio Vivaldi" INDEX 00 00:00:00 INDEX 01 00:00:32 INDEX 02 10:30:73 INDEX 03 21:41:12 INDEX 04 32:16:27 TRACK 02 AUDIO TITLE "Concerto for Flute and Orchestra No. 2 in G minor, Op. 10 'La Notte'" PERFORMER "Antonio Vivaldi" INDEX 00 41:38:32 INDEX 01 41:46:22 TRACK 03 AUDIO TITLE "Concerto for Wind, Violin and Strings in F major" PERFORMER "Antonio Vivaldi" FLAGS PRE INDEX 00 51:35:15 INDEX 01 51:43:20



Показать сообщения:    

Текущее время: 06-Дек 17:08

Часовой пояс: UTC + 3


Вы не можете начинать темы
Вы не можете отвечать на сообщения
Вы не можете редактировать свои сообщения
Вы не можете удалять свои сообщения
Вы не можете голосовать в опросах
Вы не можете прикреплять файлы к сообщениям
Вы не можете скачивать файлы