(Classical, Symphony, Orchestral) The Arthur Fiedler Legacy: Symphonic Spectacular - 2007 [2 CD], FLAC (image+.cue) lossless


 

[Цитировать]

The Arthur Fiedler Legacy: Symphonic Spectacular- Год издания диска: 2007
Жанр: Easy Listening Classical, Symphony, Orchestral
Исполнители: Boston Pops Orchestra & Arthur Fiedler
Страна-производитель диска: Germany
Издатель: Deutsche Grammophon GmbH, Hamburg
Номер по каталогу: 00289 477 6118-Аудиокодек: FLAC
Тип рипа: image+.cue
Битрейт аудио: lossless
Продолжительность: 01:15:12 + 01:17:17
Источник: собственный рип
Наличие сканов в содержимом раздачи: да
-

CD1

Треклист:
01. Dmitri Shostakovich.Festive Overture, Op.96 (5:38)
02. Felix Mendelssohn.'A Midsummer Night's Dream', Op.61:Wedding March (5:40)
03. Johann Sebastian Bach.Toccata and Fugue in D minor, BWV 565 (9:45)
04. J.S. Bach.Fugue in G major ('a la Gigue), BWV 577 (3:23)
05. J.S. Bach.Easter Oratorio, BWV 429:Sinfonia (4:19)
06. J.S. Bach.Partita No.3 in E major for Solo Violin, BWV 1006:Preludio (3:54)
07. J.S. Bach.Gavotte en rondeau (3:04)
08. J.S. Bach.Sonata No.3 in C major for Solo Violin, BWV 1005:Adagio (4:18)
09. J.S. Bach.'Little' Fugue in G minor, BWV 578 (3:58)
10. Johann Sebastian Bachh.Cantata BWV 208 ('Hunting Cantata'):Sheep May Safely Graze (4:44)
11. Vaughan Williams.March:Seventeen come Sunday (3:35)
12. Vaughan Williams.Intermezzo:My Bonny Boy (3:43)
13. Vaughan Williams.March:Folk Songs from Somerset (3:53)
14. Pyotr Tchaikovsky.'1812' Overture, Op.49 (15:11)-

Лог создания рипа

Exact Audio Copy V1.0 beta 3 from 29. August 2011
EAC extraction logfile from 28. February 2015, 5:55
Boston Pops Orchestra & Arthur Fiedler / Symphonic Spectacular (Disc 1)
Used drive : PIONEER DVD-RW DVR-111 Adapter: 1 ID: 1
Read mode : SecureUtilize accurate stream : YesDefeat audio cache : YesMake use of C2 pointers : No
Read offset correction : 48Overread into Lead-In and Lead-Out : NoFill up missing offset samples with silence : YesDelete leading and trailing silent blocks : NoNull samples used in CRC calculations : YesUsed interface : Native Win32 interface for Win NT & 2000
Used output format : User Defined EncoderSelected bitrate : 768 kBit/sQuality : HighAdd ID3 tag : NoCommand line compressor : C:\Program Files (x86)\Exact Audio Copy\FLAC\FLAC.EXEAdditional command line options : -6 -V -T "ARTIST=%artist%" -T "TITLE=%title%" -T "ALBUM=%albumtitle%" -T "DATE=%year%" -T "TRACKNUMBER=%tracknr%" -T "GENRE=%genre%" -T "COMMENT=%comment%" -T "BAND=%albuminterpret%" -T "ALBUMARTIST=%albuminterpret%" -T "COMPOSER=%composer%" %haslyrics%--tag-from-file=LYRICS="%lyricsfile%"%haslyrics% -T "DISCNUMBER=%cdnumber%" -T "TOTALDISCS=%totalcds%" -T "TOTALTRACKS=%numtracks%" %hascover%--picture="%coverfile%"%hascover% %source% -o %dest%
TOC of the extracted CD
Track | Start | Length | Start sector | End sector --------------------------------------------------------- 1 | 0:00.00 | 5:38.56 | 0 | 25405 2 | 5:38.56 | 5:40.72 | 25406 | 50977 3 | 11:19.53 | 9:45.38 | 50978 | 94890 4 | 21:05.16 | 3:23.03 | 94891 | 110118 5 | 24:28.19 | 4:19.28 | 110119 | 129571 6 | 28:47.47 | 3:54.43 | 129572 | 147164 7 | 32:42.15 | 3:04.64 | 147165 | 161028 8 | 35:47.04 | 4:18.53 | 161029 | 180431 9 | 40:05.57 | 3:58.16 | 180432 | 198297 10 | 44:03.73 | 4:44.30 | 198298 | 219627 11 | 48:48.28 | 3:35.46 | 219628 | 235798 12 | 52:23.74 | 3:43.05 | 235799 | 252528 13 | 56:07.04 | 3:53.36 | 252529 | 270039 14 | 60:00.40 | 15:11.42 | 270040 | 338406
Range status and errors
Selected range
Filename F:\Boston Pops Orchestra & Arthur Fiedler - Symphonic Spectacular (2007)\CD1\Boston Pops Orchestra & Arthur Fiedler - Symphonic Spectacular (Disc 1).wav
Peak level 98.8 % Extraction speed 8.1 X Range quality 100.0 % Copy CRC 2A4111B2 Copy OK
No errors occurred
AccurateRip summary
Track 1 accurately ripped (confidence 2) [963EDC1E] (AR v2)Track 2 accurately ripped (confidence 2) [DB632D4F] (AR v2)Track 3 accurately ripped (confidence 2) [36D85E68] (AR v2)Track 4 accurately ripped (confidence 2) [138C5D1D] (AR v2)Track 5 accurately ripped (confidence 2) [8B0AB2F2] (AR v2)Track 6 accurately ripped (confidence 2) [A5510494] (AR v2)Track 7 accurately ripped (confidence 2) [AED26345] (AR v2)Track 8 accurately ripped (confidence 2) [107AEF62] (AR v2)Track 9 accurately ripped (confidence 2) [C825984C] (AR v2)Track 10 accurately ripped (confidence 2) [0BB01080] (AR v2)Track 11 accurately ripped (confidence 2) [EFAB33A3] (AR v2)Track 12 accurately ripped (confidence 2) [464EC41C] (AR v2)Track 13 accurately ripped (confidence 2) [045FC4EE] (AR v2)Track 14 accurately ripped (confidence 2) [CD210CFD] (AR v2)
All tracks accurately ripped
End of status report

Лог проверки качества

AUDIOCHECKER v2.0 beta (build 457) - by Dester - opdester@freemail.hu~~~~~~~~~~~~~~~~~~~~~~~~~~~~~~~~~~Started at: Bazar, 01. 03. 2015. - 17:09.261 file found
1 -===- F:\CD Images\Boston Pops Orchestra & Arthur Fiedler - Symphonic Spectacular (2007)\CD1\Boston Pops Orchestra & Arthur Fiedler - Symphonic Spectacular (Disc 1).flac Extracted successfully Conclusion: this track is CDDA with probability 99% Tempfile successfully deleted.
Finished at: Bazar, 01. 03. 2015. - 17:13.40 (operation time: 0:04.14)

Содержание индексной карты (.CUE)

REM GENRE ClassicalREM DATE 2007REM DISCID C411A00EREM COMMENT "ExactAudioCopy v1.0b3"PERFORMER "Boston Pops Orchestra & Arthur Fiedler"TITLE "Symphonic Spectacular (Disc 1)"FILE "Boston Pops Orchestra & Arthur Fiedler - Symphonic Spectacular (Disc 1).flac" WAVE TRACK 01 AUDIO TITLE "Shostakovich.Festive Overture, Op.96" PERFORMER "Boston Pops Orchestra & Arthur Fiedler" INDEX 01 00:00:00 TRACK 02 AUDIO TITLE "Mendelssohn.'A Midsummer Night's Dream', Op.61:Wedding March" PERFORMER "Boston Pops Orchestra & Arthur Fiedler" INDEX 00 05:36:21 INDEX 01 05:38:56 TRACK 03 AUDIO TITLE "J.S. Bach.Toccata and Fugue in D minor, BWV 565" PERFORMER "Boston Pops Orchestra & Arthur Fiedler" INDEX 00 11:16:47 INDEX 01 11:19:53 TRACK 04 AUDIO TITLE "J.S. Bach.Fugue in G major ('a la Gigue), BWV 577" PERFORMER "Boston Pops Orchestra & Arthur Fiedler" INDEX 00 21:02:22 INDEX 01 21:05:16 TRACK 05 AUDIO TITLE "J.S. Bach.Easter Oratorio, BWV 429:Sinfonia" PERFORMER "Boston Pops Orchestra & Arthur Fiedler" INDEX 00 24:26:04 INDEX 01 24:28:19 TRACK 06 AUDIO TITLE "J.S. Bach.Partita No.3 in E major for Solo Violin, BWV 1006:Preludio" PERFORMER "Boston Pops Orchestra & Arthur Fiedler" INDEX 00 28:44:43 INDEX 01 28:47:47 TRACK 07 AUDIO TITLE "J.S. Bach.Gavotte en rondeau" PERFORMER "Boston Pops Orchestra & Arthur Fiedler" INDEX 00 32:39:11 INDEX 01 32:42:15 TRACK 08 AUDIO TITLE "J.S. Bach.Sonata No.3 in C major for Solo Violin, BWV 1005:Adagio" PERFORMER "Boston Pops Orchestra & Arthur Fiedler" INDEX 00 35:44:64 INDEX 01 35:47:04 TRACK 09 AUDIO TITLE "J.S. Bach.'Little' Fugue in G minor, BWV 578" PERFORMER "Boston Pops Orchestra & Arthur Fiedler" INDEX 00 40:02:26 INDEX 01 40:05:57 TRACK 10 AUDIO TITLE "J.S. Bach.Cantata BWV 208 ('Hunting Cantata'):Sheep May Safely Graze" PERFORMER "Boston Pops Orchestra & Arthur Fiedler" INDEX 00 44:01:42 INDEX 01 44:03:73 TRACK 11 AUDIO TITLE "Vaughan Williams.March:Seventeen come Sunday " PERFORMER "Boston Pops Orchestra & Arthur Fiedler" INDEX 00 48:44:74 INDEX 01 48:48:28 TRACK 12 AUDIO TITLE "Vaughan Williams.Intermezzo:My Bonny Boy" PERFORMER "Boston Pops Orchestra & Arthur Fiedler" INDEX 00 52:23:72 INDEX 01 52:23:74 TRACK 13 AUDIO TITLE "Vaughan Williams.March:Folk Songs from Somerset" PERFORMER "Boston Pops Orchestra & Arthur Fiedler" INDEX 00 56:07:02 INDEX 01 56:07:04 TRACK 14 AUDIO TITLE "Tchaikovsky.'1812' Overture, Op.49" PERFORMER "Boston Pops Orchestra & Arthur Fiedler" INDEX 00 59:57:08 INDEX 01 60:00:40

CD2

Треклист:
01. Arthur Sullivan.Overture di Ballo (11:14)
02. Maurice Ravel.Bolero (14:49)
03. Giuseppe Verdi.'Aida': Ballet Music (10:26)
04. Antonin Dvorak.Slavonic Dance No.1 in C major, Op.46 (4:25)
05. Antonin Dvorak.Slavonic Dance No.7 in C major, Op.72 (3:27)
06. Frederic Chopin.Polonaise in A major, Op.40 No.1 'Military' (4:26)
07. Modest Mussorgsky.Night on Bald Mountain (10:46)
08. Camille Saint-Saens.Danse Macabre, Op.40 (7:08)
09. Aram Khachaturian.'Gayaneh': Sabre Dance (2:18)
10. Igor Stravinsky.'The Firebird':Danse Infernal (4:22)
11. Alberto Ginastera.'Estancia' Op.8:Danza Final (Malambo) (3:52)-

Лог создания рипа

Exact Audio Copy V1.0 beta 3 from 29. August 2011
EAC extraction logfile from 28. February 2015, 5:37
Boston Pops Orchestra & Arthur Fiedler / Symphonic Spectacular (Disc 2)
Used drive : PIONEER DVD-RW DVR-111 Adapter: 1 ID: 1
Read mode : SecureUtilize accurate stream : YesDefeat audio cache : YesMake use of C2 pointers : No
Read offset correction : 48Overread into Lead-In and Lead-Out : NoFill up missing offset samples with silence : YesDelete leading and trailing silent blocks : NoNull samples used in CRC calculations : YesUsed interface : Native Win32 interface for Win NT & 2000
Used output format : User Defined EncoderSelected bitrate : 768 kBit/sQuality : HighAdd ID3 tag : NoCommand line compressor : C:\Program Files (x86)\Exact Audio Copy\FLAC\FLAC.EXEAdditional command line options : -6 -V -T "ARTIST=%artist%" -T "TITLE=%title%" -T "ALBUM=%albumtitle%" -T "DATE=%year%" -T "TRACKNUMBER=%tracknr%" -T "GENRE=%genre%" -T "COMMENT=%comment%" -T "BAND=%albuminterpret%" -T "ALBUMARTIST=%albuminterpret%" -T "COMPOSER=%composer%" %haslyrics%--tag-from-file=LYRICS="%lyricsfile%"%haslyrics% -T "DISCNUMBER=%cdnumber%" -T "TOTALDISCS=%totalcds%" -T "TOTALTRACKS=%numtracks%" %hascover%--picture="%coverfile%"%hascover% %source% -o %dest%
TOC of the extracted CD
Track | Start | Length | Start sector | End sector --------------------------------------------------------- 1 | 0:00.00 | 11:14.43 | 0 | 50592 2 | 11:14.43 | 14:49.07 | 50593 | 117274 3 | 26:03.50 | 10:26.48 | 117275 | 164272 4 | 36:30.23 | 4:25.12 | 164273 | 184159 5 | 40:55.35 | 3:27.08 | 184160 | 199692 6 | 44:22.43 | 4:26.00 | 199693 | 219642 7 | 48:48.43 | 10:46.74 | 219643 | 268166 8 | 59:35.42 | 7:08.51 | 268167 | 300317 9 | 66:44.18 | 2:18.71 | 300318 | 310738 10 | 69:03.14 | 4:22.05 | 310739 | 330393 11 | 73:25.19 | 3:52.08 | 330394 | 347801
Range status and errors
Selected range
Filename F:\Boston Pops Orchestra & Arthur Fiedler - Symphonic Spectacular (2007)\CD2\Boston Pops Orchestra & Arthur Fiedler - Symphonic Spectacular (Disc 2).wav
Peak level 98.8 % Extraction speed 8.3 X Range quality 99.9 % Copy CRC C4D95534 Copy OK
No errors occurred
AccurateRip summary
Track 1 accurately ripped (confidence 2) [F90B8C22] (AR v2)Track 2 accurately ripped (confidence 2) [D840AD05] (AR v2)Track 3 accurately ripped (confidence 2) [C9AAABB9] (AR v2)Track 4 accurately ripped (confidence 2) [97A68315] (AR v2)Track 5 accurately ripped (confidence 2) [06D6347A] (AR v2)Track 6 accurately ripped (confidence 2) [02233FD0] (AR v2)Track 7 accurately ripped (confidence 2) [CB158C4D] (AR v2)Track 8 accurately ripped (confidence 2) [48735794] (AR v2)Track 9 accurately ripped (confidence 2) [53AFFBB9] (AR v2)Track 10 accurately ripped (confidence 2) [40AA50B3] (AR v2)Track 11 accurately ripped (confidence 2) [6C99A9B8] (AR v2)
All tracks accurately ripped
End of status report

Лог проверки качества

AUDIOCHECKER v2.0 beta (build 457) - by Dester - opdester@freemail.hu~~~~~~~~~~~~~~~~~~~~~~~~~~~~~~~~~~Started at: Bazar, 01. 03. 2015. - 17:20.581 file found
1 -===- F:\CD Images\Boston Pops Orchestra & Arthur Fiedler - Symphonic Spectacular (2007)\CD2\Boston Pops Orchestra & Arthur Fiedler - Symphonic Spectacular (Disc 2).flac Extracted successfully Conclusion: this track is CDDA with probability 100% Tempfile successfully deleted.
Finished at: Bazar, 01. 03. 2015. - 17:25.07 (operation time: 0:04.09)

Содержание индексной карты (.CUE)

REM GENRE ClassicalREM DATE 2007REM DISCID A3121D0BREM COMMENT "ExactAudioCopy v1.0b3"PERFORMER "Boston Pops Orchestra & Arthur Fiedler"TITLE "Symphonic Spectacular (Disc 2)"FILE "Boston Pops Orchestra & Arthur Fiedler - Symphonic Spectacular (Disc 2).flac" WAVE TRACK 01 AUDIO TITLE "Arthur Sullivan.Overture di Ballo" PERFORMER "Boston Pops Orchestra & Arthur Fiedler" INDEX 01 00:00:00 TRACK 02 AUDIO TITLE "Maurice Ravel.Bolero" PERFORMER "Boston Pops Orchestra & Arthur Fiedler" INDEX 00 11:11:39 INDEX 01 11:14:43 TRACK 03 AUDIO TITLE "Giuseppe Verdi.'Aida': Ballet Music" PERFORMER "Boston Pops Orchestra & Arthur Fiedler" INDEX 00 26:00:56 INDEX 01 26:03:50 TRACK 04 AUDIO TITLE "Anton'in Dvor'ak.Slavonic Dance No.1 in C major, Op.46" PERFORMER "Boston Pops Orchestra & Arthur Fiedler" INDEX 01 36:30:23 TRACK 05 AUDIO TITLE "Anton'in Dvor'ak.Slavonic Dance No.7 in C major, Op.72" PERFORMER "Boston Pops Orchestra & Arthur Fiedler" INDEX 00 40:53:37 INDEX 01 40:55:35 TRACK 06 AUDIO TITLE "Fr'ed'eric Chopin.Polonaise in A major, Op.40 No.1 'Military'" PERFORMER "Boston Pops Orchestra & Arthur Fiedler" INDEX 00 44:20:35 INDEX 01 44:22:43 TRACK 07 AUDIO TITLE "Modest Mussorgsky.Night on Bald Mountain" PERFORMER "Boston Pops Orchestra & Arthur Fiedler" INDEX 00 48:45:38 INDEX 01 48:48:43 TRACK 08 AUDIO TITLE "Camille Saint-Saens.Danse Macabre, Op.40" PERFORMER "Boston Pops Orchestra & Arthur Fiedler" INDEX 00 59:32:38 INDEX 01 59:35:42 TRACK 09 AUDIO TITLE "Aram Khachaturian.'Gayaneh': Sabre Dance" PERFORMER "Boston Pops Orchestra & Arthur Fiedler" INDEX 00 66:41:24 INDEX 01 66:44:18 TRACK 10 AUDIO TITLE "Igor Stravinsky.'The Firebird':Danse Infernal" PERFORMER "Boston Pops Orchestra & Arthur Fiedler" INDEX 00 69:00:69 INDEX 01 69:03:14 TRACK 11 AUDIO TITLE "Alberto Ginastera.'Estancia' Op.8:Danza Final (Malambo)" PERFORMER "Boston Pops Orchestra & Arthur Fiedler" INDEX 00 73:21:61 INDEX 01 73:25:19
-

Дополнительно

ВСЕ МОИ РАЗДАЧИ



Показать сообщения:    

Текущее время: 11-Дек 14:52

Часовой пояс: UTC + 3


Вы не можете начинать темы
Вы не можете отвечать на сообщения
Вы не можете редактировать свои сообщения
Вы не можете удалять свои сообщения
Вы не можете голосовать в опросах
Вы не можете прикреплять файлы к сообщениям
Вы не можете скачивать файлы