(Symphony) Felix Mendelssohn - The Symphonies (Complete), A Midsummer Night\'s Dream, Octet (version for string orchestra) (Deutsches Symphonie-Orchester Berlin, Владимир Ашкенази / Vladimir Ashkenazy) - 2000, FLAC (image+.cue) lossless


 

[Цитировать]

Felix Mendelssohn - The Symphonies, A Midsummer Night's Dream, Octet
Deutsches Symphonie-Orchester Berlin | Vladimir Ashkenazy
Жанр: Orchestral
Страна-производитель диска: Germany
Год издания диска: 2000
Издатель (лейбл): Decca
Номер по каталогу: 467 664-2
Дата записи: 1992-1996
Аудиокодек: FLAC
Тип рипа: image+.cue
Битрейт аудио: lossless
Продолжительность: 4:34:27
Источник: собственный рип
Наличие сканов в содержимом раздачи: да
Исполнители:
Deutsches Symphonie-Orchester Berlin
Vladimir Ashkenazy - conductor
Juliane Banse - soprano*
Vinson Cole - tenor*
Sibylla Rubens - soprano*
Berlin Radio Symphony Chorus**

ТреклистCD1: Symphonies No.1 & 5

Symphony No. 1, op. 11
01. I. Allegro molto 09:37
02. II. Andante 06:51
03. III. Menuetto; Allegro molto 06:26
04. IV. Allegro con fuoco 07:57
Symphony No. 5, op. 107 'Reformation'
05. I. Andante - Allegro con fuoco 11:39
06. II. Allegro vivace 05:04
07. III. Andante 03:11
08. IV. Choral 'Ein' feste Burg' - Andant... 09:43

CD2: Symphony No. 2*

Symphony No. 2 in B flat major ("Lobgesang", "Hymn of Praise"), Op. 52*
01. I Sinfonia: Maestoso con moto - Allegro 12:33
02. Scherzo: Allegretto un poco agitato 05:46
03. Adagio religioso 07:29
04. II Alles was Odem hat 06:45
05. III Saget es - Er zaehlet unsree Traenen 04:04
06. IV Saget es, die ihr erloeset seid 02:07
07. V Ich harrete des Herrn 04:59
08. VI Stricke des Todes 04:28
09. VII Die Nacht ist vergangen 04:44
10. VIII Nun danket alle Gott 05:11
11. IX Drum sing' ich mit meinem Liede 04:46
12. X Ihr Voelker! 05:25

CD3: A Midsummer Night's Dream** & Octet

A Midsummer Night's Dream [Overture and Incidental Music, Op. 21&61]**
01.Ouverture, Op. 21 (Allegro di molto) 11:32
02.Scherzo: Allegro vivace 04:17
03.Uber Taler und Hoh'n (Allegro vivace) 01:21
04.Nachtigall, mit Melodei (Allegro ma non troppo) 04:14
05.Intermezzo: Allegro appassionato 03:19
06.Notturno: Andante tranquillo 07:23
07.Hochzeitsmarsch: Allegro vivace 05:01
08.Fanfare: Allegro comodo 00:19
09.Marcia funebre: Andante comodo 01:06
10.Ein Tanz von Rupeln: Allego di molto 01:34
11.Finale: Bei des Feuers mattem Flimmern (Allegro di molto) 04:58
Octet for strings in E flat major, Op.20 (version for string orchestra)
12.Allegro moderato, ma con fuoco 14:06
13.Andante 08:11
14.Scherzo: Allegro leggierissimo 04:41
15.Presto 06:24

CD4: Symphonies No. 3 & 4

Symphony No 3 in A minor, Op. 56 "Scottish"
01. I. Andante con moto - Allegro un poco agitato 16:13
02. II. Vivace non troppo 04:12
03. III. Adagio 08:51
04. IV. Allegro vivacissimo - Allegro maestroso assai 09:26
Symphony No 4 in A major, Op. 90 "Italian"
05. I. Allegro vivace 10:14
06. II. Andante con moto 05:58
07. III. Con moto moderato 06:22
08. IV. Saltarello: Presto 05:41

Лог создания рипа

Лог создания рипа CD1

Exact Audio Copy V1.0 beta 2 from 29. April 2011
EAC extraction logfile from 7. February 2015, 15:36
V. Ashkenazy & Deutsches Symphonie-Orchester Berlin (RSO) / Symphonies No. 1 & No. 5
Used drive : _NEC DVD_RW ND-3551A Adapter: 0 ID: 0
Read mode : Secure
Utilize accurate stream : Yes
Defeat audio cache : Yes
Make use of C2 pointers : No
Read offset correction : 48
Overread into Lead-In and Lead-Out : No
Fill up missing offset samples with silence : Yes
Delete leading and trailing silent blocks : No
Null samples used in CRC calculations : Yes
Used interface : Native Win32 interface for Win NT & 2000
Used output format : User Defined Encoder
Selected bitrate : 128 kBit/s
Quality : High
Add ID3 tag : No
Command line compressor : D:\Program Files\Exact Audio Copy\Flac\flac.exe
Additional command line options : -V -8 -T "Date=%year%" -T "Genre=%genre%" %source%
TOC of the extracted CD
Track | Start | Length | Start sector | End sector
---------------------------------------------------------
1 | 0:00.32 | 9:37.13 | 32 | 43319
2 | 9:37.45 | 6:51.60 | 43320 | 74204
3 | 16:29.30 | 6:26.07 | 74205 | 103161
4 | 22:55.37 | 7:57.15 | 103162 | 138951
5 | 30:52.52 | 11:39.73 | 138952 | 191449
6 | 42:32.50 | 5:04.50 | 191450 | 214299
7 | 47:37.25 | 3:11.00 | 214300 | 228624
8 | 50:48.25 | 9:43.70 | 228625 | 272419
Range status and errors
Selected range
Filename C:\RIP\Mendelssohn - Symphonies CD1.wav
Peak level 91.5 %
Extraction speed 2.9 X
Range quality 100.0 %
Test CRC C93E488A
Copy CRC C93E488A
Copy OK
No errors occurred
AccurateRip summary
Track 1 accurately ripped (confidence 6) [D43A957F] (AR v2)
Track 2 accurately ripped (confidence 6) [0F86C326] (AR v2)
Track 3 accurately ripped (confidence 6) [F082F6EE] (AR v2)
Track 4 accurately ripped (confidence 6) [B8B875D2] (AR v2)
Track 5 accurately ripped (confidence 6) [53E8A206] (AR v2)
Track 6 accurately ripped (confidence 6) [344DF2B0] (AR v2)
Track 7 accurately ripped (confidence 6) [3C372CEC] (AR v2)
Track 8 accurately ripped (confidence 6) [A6045228] (AR v2)
All tracks accurately ripped
End of status report
==== Log checksum 23A20B41CF5ABDA214BCABCCCBCF4EDF71AD957AA9EC59E33ECA34ED2112BDD4 ====

Лог создания рипа CD2

Exact Audio Copy V1.0 beta 2 from 29. April 2011
EAC extraction logfile from 7. February 2015, 16:59
V. Ashkenazy & Deutsches Symphonie-Orchester Berlin (RSO) / Symphony No. 2, op. 52 "Lobgesang"
Used drive : _NEC DVD_RW ND-3551A Adapter: 0 ID: 0
Read mode : Secure
Utilize accurate stream : Yes
Defeat audio cache : Yes
Make use of C2 pointers : No
Read offset correction : 48
Overread into Lead-In and Lead-Out : No
Fill up missing offset samples with silence : Yes
Delete leading and trailing silent blocks : No
Null samples used in CRC calculations : Yes
Used interface : Native Win32 interface for Win NT & 2000
Used output format : User Defined Encoder
Selected bitrate : 128 kBit/s
Quality : High
Add ID3 tag : No
Command line compressor : D:\Program Files\Exact Audio Copy\Flac\flac.exe
Additional command line options : -V -8 -T "Date=%year%" -T "Genre=%genre%" %source%
TOC of the extracted CD
Track | Start | Length | Start sector | End sector
---------------------------------------------------------
1 | 0:00.33 | 12:33.17 | 33 | 56524
2 | 12:33.50 | 5:46.45 | 56525 | 82519
3 | 18:20.20 | 7:29.63 | 82520 | 116257
4 | 25:50.08 | 6:45.50 | 116258 | 146682
5 | 32:35.58 | 4:04.00 | 146683 | 164982
6 | 36:39.58 | 2:07.62 | 164983 | 174569
7 | 38:47.45 | 4:59.38 | 174570 | 197032
8 | 43:47.08 | 4:28.47 | 197033 | 217179
9 | 48:15.55 | 4:44.53 | 217180 | 238532
10 | 53:00.33 | 5:11.00 | 238533 | 261857
11 | 58:11.33 | 4:46.25 | 261858 | 283332
12 | 62:57.58 | 5:25.50 | 283333 | 307757
Range status and errors
Selected range
Filename C:\RIP\Mendelssohn - Symphonies CD2.wav
Peak level 100.0 %
Extraction speed 3.1 X
Range quality 100.0 %
Test CRC B1C4119E
Copy CRC B1C4119E
Copy OK
No errors occurred
AccurateRip summary
Track 1 accurately ripped (confidence 3) [04842987] (AR v2)
Track 2 accurately ripped (confidence 3) [CFB2E113] (AR v2)
Track 3 accurately ripped (confidence 3) [645A7924] (AR v2)
Track 4 accurately ripped (confidence 3) [49580230] (AR v2)
Track 5 accurately ripped (confidence 3) [89AA43EA] (AR v2)
Track 6 accurately ripped (confidence 3) [CDEDADC2] (AR v2)
Track 7 accurately ripped (confidence 3) [F6DB7D57] (AR v2)
Track 8 accurately ripped (confidence 3) [E741D591] (AR v2)
Track 9 accurately ripped (confidence 3) [668E27B3] (AR v2)
Track 10 accurately ripped (confidence 3) [589A93D1] (AR v2)
Track 11 accurately ripped (confidence 3) [8664E022] (AR v2)
Track 12 accurately ripped (confidence 3) [EF61869F] (AR v2)
All tracks accurately ripped
End of status report
==== Log checksum 6DF4C7D3042EAB55556E563103848208DAC140A7AF07DD6FD5B2C1CABA0E63B1 ====

Лог создания рипа CD3

Exact Audio Copy V1.0 beta 2 from 29. April 2011
EAC extraction logfile from 7. February 2015, 18:04
Vladimir Ashkenazy/Deutsche Symphonie-Orchester Berlin / Ein Sommernachtstraum/Streichoktett in Es-dur, op. 20
Used drive : _NEC DVD_RW ND-3551A Adapter: 0 ID: 0
Read mode : Secure
Utilize accurate stream : Yes
Defeat audio cache : Yes
Make use of C2 pointers : No
Read offset correction : 48
Overread into Lead-In and Lead-Out : No
Fill up missing offset samples with silence : Yes
Delete leading and trailing silent blocks : No
Null samples used in CRC calculations : Yes
Used interface : Native Win32 interface for Win NT & 2000
Used output format : User Defined Encoder
Selected bitrate : 128 kBit/s
Quality : High
Add ID3 tag : No
Command line compressor : D:\Program Files\Exact Audio Copy\Flac\flac.exe
Additional command line options : -V -8 -T "Date=%year%" -T "Genre=%genre%" %source%
TOC of the extracted CD
Track | Start | Length | Start sector | End sector
---------------------------------------------------------
1 | 0:00.32 | 11:32.38 | 32 | 51969
2 | 11:32.70 | 4:17.37 | 51970 | 71281
3 | 15:50.32 | 1:21.50 | 71282 | 77406
4 | 17:12.07 | 4:14.38 | 77407 | 96494
5 | 21:26.45 | 3:19.25 | 96495 | 111444
6 | 24:45.70 | 7:23.00 | 111445 | 144669
7 | 32:08.70 | 5:01.37 | 144670 | 167281
8 | 37:10.32 | 0:19.38 | 167282 | 168744
9 | 37:29.70 | 1:06.37 | 168745 | 173731
10 | 38:36.32 | 1:34.63 | 173732 | 180844
11 | 40:11.20 | 4:58.00 | 180845 | 203194
12 | 45:09.20 | 14:06.12 | 203195 | 266656
13 | 59:15.32 | 8:11.50 | 266657 | 303531
14 | 67:27.07 | 4:41.50 | 303532 | 324656
15 | 72:08.57 | 6:24.50 | 324657 | 353506
Range status and errors
Selected range
Filename C:\RIP\Mendelssohn - Symphonies CD3.wav
Peak level 95.9 %
Extraction speed 3.1 X
Range quality 99.9 %
Test CRC BDB90036
Copy CRC BDB90036
Copy OK
No errors occurred
AccurateRip summary
Track 1 accurately ripped (confidence 4) [18435FCF] (AR v2)
Track 2 accurately ripped (confidence 4) [E0C03CE2] (AR v2)
Track 3 accurately ripped (confidence 4) [156D0EC4] (AR v2)
Track 4 accurately ripped (confidence 4) [A646F4EC] (AR v2)
Track 5 accurately ripped (confidence 4) [64DC3C0F] (AR v2)
Track 6 accurately ripped (confidence 4) [8F2F5667] (AR v2)
Track 7 accurately ripped (confidence 4) [DBA0B730] (AR v2)
Track 8 accurately ripped (confidence 4) [49EC3CF1] (AR v2)
Track 9 accurately ripped (confidence 4) [38172948] (AR v2)
Track 10 accurately ripped (confidence 4) [71252F93] (AR v2)
Track 11 accurately ripped (confidence 4) [D385C61B] (AR v2)
Track 12 accurately ripped (confidence 4) [AE11BEFC] (AR v2)
Track 13 accurately ripped (confidence 4) [47D39C90] (AR v2)
Track 14 accurately ripped (confidence 4) [F989FE07] (AR v2)
Track 15 accurately ripped (confidence 4) [56876A8D] (AR v2)
All tracks accurately ripped
End of status report
==== Log checksum 73F71A8C37F22355FC9CF2ACE03CC2DB880B3AF0DA7EE7D7A8914889C6D1F67E ====

Лог создания рипа CD4

Exact Audio Copy V1.0 beta 2 from 29. April 2011
EAC extraction logfile from 7. February 2015, 19:01
Vladimir Ashkenazy / Symphonies No.3 & 4
Used drive : _NEC DVD_RW ND-3551A Adapter: 0 ID: 0
Read mode : Secure
Utilize accurate stream : Yes
Defeat audio cache : Yes
Make use of C2 pointers : No
Read offset correction : 48
Overread into Lead-In and Lead-Out : No
Fill up missing offset samples with silence : Yes
Delete leading and trailing silent blocks : No
Null samples used in CRC calculations : Yes
Used interface : Native Win32 interface for Win NT & 2000
Used output format : User Defined Encoder
Selected bitrate : 128 kBit/s
Quality : High
Add ID3 tag : No
Command line compressor : D:\Program Files\Exact Audio Copy\Flac\flac.exe
Additional command line options : -V -8 -T "Date=%year%" -T "Genre=%genre%" %source%
TOC of the extracted CD
Track | Start | Length | Start sector | End sector
---------------------------------------------------------
1 | 0:00.00 | 16:13.52 | 0 | 73026
2 | 16:13.52 | 4:12.45 | 73027 | 91971
3 | 20:26.22 | 8:51.18 | 91972 | 131814
4 | 29:17.40 | 9:26.10 | 131815 | 174274
5 | 38:43.50 | 10:14.10 | 174275 | 220334
6 | 48:57.60 | 5:58.47 | 220335 | 247231
7 | 54:56.32 | 6:22.43 | 247232 | 275924
8 | 61:19.00 | 5:41.07 | 275925 | 301506
Range status and errors
Selected range
Filename C:\RIP\Mendelssohn - Symphonies CD4.wav
Peak level 100.0 %
Extraction speed 3.1 X
Range quality 100.0 %
Test CRC 05649270
Copy CRC 05649270
Copy OK
No errors occurred
AccurateRip summary
Track 1 accurately ripped (confidence 12) [914D939B] (AR v2)
Track 2 accurately ripped (confidence 12) [593B9217] (AR v2)
Track 3 accurately ripped (confidence 12) [AFF8B1C4] (AR v2)
Track 4 accurately ripped (confidence 12) [016D096E] (AR v2)
Track 5 accurately ripped (confidence 12) [3E40C967] (AR v2)
Track 6 accurately ripped (confidence 12) [D31E4452] (AR v2)
Track 7 accurately ripped (confidence 12) [B4067DEF] (AR v2)
Track 8 accurately ripped (confidence 12) [3401B7F3] (AR v2)
All tracks accurately ripped
End of status report
==== Log checksum 710F60FFF63F14187560272A65F4647058E78084EB577BB80A8C8AB4E77A252F ====



Показать сообщения:    

Текущее время: 05-Дек 05:27

Часовой пояс: UTC + 3


Вы не можете начинать темы
Вы не можете отвечать на сообщения
Вы не можете редактировать свои сообщения
Вы не можете удалять свои сообщения
Вы не можете голосовать в опросах
Вы не можете прикреплять файлы к сообщениям
Вы не можете скачивать файлы