(Classical) Antonio Vivaldi - Spectacular Classics - 2010, FLAC (image+.cue) lossless


 

[Цитировать]

Antonio Vivaldi - Spectacular Classics
Жанр: Classical
Страна-производитель диска: Румыния
Год издания диска: 2010
Издатель (лейбл): Musicbank limited
Номер по каталогу: 490DB408
Аудиокодек: FLAC
Тип рипа: image+.cue
Битрейт аудио: lossless
Продолжительность: 58:28
Источник: собственный рип
Наличие сканов в содержимом раздачи: да
Треклист:
1. Concerto for Two Flutes, Strings and Harpsichord in C Major
2. Concerto for Mandolin, Strings and Harpsichord in C Major
3. Concerto for Strings and Organ in D Major
4. Concerto for Two Violincello and String Orchestra in G Minor
5. Sinfonia in C Major
6. Concerto for Violin and Orchestra in A Minor, Op. 3 no. 6
7. Concerto for Two Violins and Orchestra in a Minor, Op. 3 No 8
8. Concerto for String, Orchestra and Harpsichord in C Major
Исполнители:
Stuttgart Chamber Orchestra (Hans Zanotelli)

Все раздачи серии Spectacular Classics

Spectacular Classics

Лог создания рипа

Exact Audio Copy V1.0 beta 4 from 7. December 2014
Отчёт EAC об извлечении, выполненном 18. января 2015, 23:41
Antonio Vivaldi / Apollo Classics
Дисковод: Optiarc DVD RW AD-7700S Adapter: 1 ID: 2
Режим чтения : ДостоверностьИспользование точного потока : ДаОтключение кэша аудио : ДаИспользование указателей C2 : Нет
Коррекция смещения при чтении : 48Способность читать области Lead-in и Lead-out : ДаЗаполнение пропущенных сэмплов тишиной : ДаУдаление блоков с тишиной в начале и конце : НетПри вычислениях CRC использовались нулевые сэмплы : ДаИнтерфейс : Встроенный Win32-интерфейс для Win NT/2000
Выходной формат : Пользовательский кодировщикВыбранный битрейт : 128 kBit/sКачество : ВысокийДобавление ID3-тега : НетУтилита сжатия : C:\Program Files (x86)\Exact Audio Copy\Flac\flac.exeДополнительные параметры : -V -8 -T "Date=%year%" -T "Genre=%genre%" %source%
TOC извлечённого CD
Трек | Старт | Длительность | Начальный сектор | Конечный сектор --------------------------------------------------------------------- 1 | 0:00.00 | 6:40.70 | 0 | 30069 2 | 6:40.70 | 8:44.00 | 30070 | 69369 3 | 15:24.70 | 5:25.00 | 69370 | 93744 4 | 20:49.70 | 4:12.00 | 93745 | 112644 5 | 25:01.70 | 7:07.00 | 112645 | 144669 6 | 32:08.70 | 8:00.00 | 144670 | 180669 7 | 40:08.70 | 12:12.00 | 180670 | 235569 8 | 52:20.70 | 6:07.25 | 235570 | 263119
Характеристики диапазона извлечения и сообщения об ошибках
Выбранный диапазон
Имя файла D:\Downloads\Spectacular Classics\Vivaldi\Antonio Vivaldi - Apollo Classics.wav
Пиковый уровень 95.0 % Скорость извлечения 4.8 X Качество диапазона 100.0 % CRC теста C45BB482 CRC копии C45BB482 Копирование... OK
Ошибок не произошло
Конец отчёта
==== Контрольная сумма отчёта 0B7DB12AD94E1513AD8E12288AE3E4E367CD6F51DC4CF520E8DE9B8177761AA1 ====

Содержание индексной карты (.CUE)

REM GENRE ClassicalREM DATE 2010REM DISCID 490DB408REM COMMENT "ExactAudioCopy v1.0b4"PERFORMER "Antonio Vivaldi"TITLE "Spectacular Classics"FILE "Antonio Vivaldi - Spectacular Classics.flac" WAVE TRACK 01 AUDIO TITLE "Concerto for Two Flutes, Strings and Harpsichord in C Major" PERFORMER "Antonio Vivaldi" INDEX 01 00:00:00 TRACK 02 AUDIO TITLE "Concerto for Mandolin, Strings and Harpsichord in C Major" PERFORMER "Antonio Vivaldi" INDEX 00 06:35:47 INDEX 01 06:40:70 TRACK 03 AUDIO TITLE "Concerto for Strings and Organ in D Major" PERFORMER "Antonio Vivaldi" INDEX 00 15:19:20 INDEX 01 15:24:70 TRACK 04 AUDIO TITLE "Concerto for Two Violincello and String Orchestra in G Minor" PERFORMER "Antonio Vivaldi" INDEX 00 20:44:20 INDEX 01 20:49:70 TRACK 05 AUDIO TITLE "Sinfonia in C Major" PERFORMER "Antonio Vivaldi" INDEX 00 24:56:20 INDEX 01 25:01:70 TRACK 06 AUDIO TITLE "Concerto for Violin and Orchestra in A Minor, Op. 3 no. 8" PERFORMER "Antonio Vivaldi" INDEX 00 32:03:20 INDEX 01 32:08:70 TRACK 07 AUDIO TITLE "Concerto for Two Violins and Orchestra in a Minor, Op. 3 No 8" PERFORMER "Antonio Vivaldi" INDEX 00 40:03:20 INDEX 01 40:08:70 TRACK 08 AUDIO TITLE "Concerto for String, Orchestra and Harpsichord in C Major" PERFORMER "Antonio Vivaldi" INDEX 00 52:15:20 INDEX 01 52:20:70



Показать сообщения:    

Текущее время: 07-Дек 15:35

Часовой пояс: UTC + 3


Вы не можете начинать темы
Вы не можете отвечать на сообщения
Вы не можете редактировать свои сообщения
Вы не можете удалять свои сообщения
Вы не можете голосовать в опросах
Вы не можете прикреплять файлы к сообщениям
Вы не можете скачивать файлы