(Classical/Avantgarde) Ge Gan-ru | 葛甘孺 - Shanghai Reminiscences & Butterfly Overture (Tsung Yeh) - 2015, FLAC (image+.cue) lossless


 

[Цитировать]

Ge Gan-ru - Shanghai Reminiscences
Жанр: Classical/Avantgarde
Страна-производитель диска: Germany
Год издания диска: 2015
Издатель (лейбл): Naxos
Номер по каталогу: 8.570609
Дата записи: 20&21.VI.2013
Аудиокодек: FLAC
Тип рипа: image+.cue
Битрейт аудио: lossless
Продолжительность: 1:07'06"
Источник: собственный рип
Наличие сканов в содержимом раздачи: да
Треклист:
Shanghai Reminiscences
Part I: My Childhood
01. I. Jing An Temple
02. II. Violin Beginner*
03. III. Bicycle Music
04. IV. Pedlar's Tune I (Sharpening Knives)
05. V. Flies Chase A Bald Head
06. VI. Pedlar's Tune II (Water Melon)
07. VII. Pedlar's Tune III (Steamed Pork)
08. VIII. Pedlar's Tune IV (Toasted Gingkoes)
09. IX. Summer Night's Cooling Party
Part II: Cultural Revolution - Awakening
10. I. Growing Violinist*
11. II. Chaos
12. III. Revolutionary March
13. IV. Fantasia*
14. V. Lament
15. VI. Awakening*
16. Butterfly Overture

Исполнители:
Maya Iwabuchi, solo violin*
Royal Scottish National Orchestra
Tsung Yeh-

Лог создания рипа

Exact Audio Copy V1.0 beta 1 from 15. November 2010
EAC extraction logfile from 17. February 2015, 20:29
Ge Gan-ru / Shanghai Reminiscences
Used drive : Optiarc DVD RW AD-7203A Adapter: 4 ID: 1
Read mode : SecureUtilize accurate stream : YesDefeat audio cache : YesMake use of C2 pointers : No
Read offset correction : 48Overread into Lead-In and Lead-Out : NoFill up missing offset samples with silence : YesDelete leading and trailing silent blocks : NoNull samples used in CRC calculations : YesUsed interface : Native Win32 interface for Win NT & 2000
Used output format : User Defined EncoderSelected bitrate : 128 kBit/sQuality : HighAdd ID3 tag : NoCommand line compressor : C:\Program Files\FLAC\flac.exeAdditional command line options : -T "COMMENT=Ripped by GFox" -8 -V %s
TOC of the extracted CD
Track | Start | Length | Start sector | End sector --------------------------------------------------------- 1 | 0:00.00 | 4:35.48 | 0 | 20672 2 | 4:35.48 | 2:00.64 | 20673 | 29736 3 | 6:36.37 | 3:06.38 | 29737 | 43724 4 | 9:43.00 | 3:05.72 | 43725 | 57671 5 | 12:48.72 | 3:10.12 | 57672 | 71933 6 | 15:59.09 | 0:51.67 | 71934 | 75825 7 | 16:51.01 | 1:04.69 | 75826 | 80694 8 | 17:55.70 | 1:41.02 | 80695 | 88271 9 | 19:36.72 | 6:31.09 | 88272 | 117605 10 | 26:08.06 | 2:53.47 | 117606 | 130627 11 | 29:01.53 | 2:40.19 | 130628 | 142646 12 | 31:41.72 | 2:09.66 | 142647 | 152387 13 | 33:51.63 | 3:59.08 | 152388 | 170320 14 | 37:50.71 | 7:14.56 | 170321 | 202926 15 | 45:05.52 | 6:43.67 | 202927 | 233218 16 | 51:49.44 | 15:17.16 | 233219 | 302009
Range status and errors
Selected range
Filename D:\EAC\Ge Gan-ru - Shanghai Reminiscences.wav
Peak level 100.0 % Extraction speed 0.7 X Range quality 100.0 % Test CRC 20FEC85B Copy CRC 20FEC85B Copy OK
No errors occurred
AccurateRip summary
Track 1 not present in databaseTrack 2 not present in databaseTrack 3 not present in databaseTrack 4 not present in databaseTrack 5 not present in databaseTrack 6 not present in databaseTrack 7 not present in databaseTrack 8 not present in databaseTrack 9 not present in databaseTrack 10 not present in databaseTrack 11 not present in databaseTrack 12 not present in databaseTrack 13 not present in databaseTrack 14 not present in databaseTrack 15 not present in databaseTrack 16 not present in database
None of the tracks are present in the AccurateRip database
End of status report
==== Log checksum 8957695193F515284392200944033846566AC65A98F95CE99C1C93FE58E69B5B ====
-Доп. информация: "Первый авангардный композитор Китая и один из самых оригинальных композиторов своего поколения" по мнению лондонской The Times, Гэ Гань-жу (род.1954), пожалуй, действительно является одним из наиболее заслуживающих внимания китайских композиторов. В первую очередь благодаря тому, что не пытается заработать дешёвую популярность за пределами свей страны, эксплуатируя западные штампы относительно китайской музыки. За невероятную экспрессивность, выразительный мелодизм и чуткое внимание к корням своей культуры Гэ Гань-жу можно поставить на одну доску с такими композиторами, как Рахманинов и Чайковский.
Shanghai Reminiscences - красочные музыкальные воспоминания о детстве композитора.
-



Показать сообщения:    

Текущее время: 03-Дек 18:42

Часовой пояс: UTC + 3


Вы не можете начинать темы
Вы не можете отвечать на сообщения
Вы не можете редактировать свои сообщения
Вы не можете удалять свои сообщения
Вы не можете голосовать в опросах
Вы не можете прикреплять файлы к сообщениям
Вы не можете скачивать файлы