(Classical, Orchestral) Bruckner - Symphony No. 5 (Orchestre des Champs-Elysees, Philippe Herreweghe) - 2009, FLAC (tracks+.cue), lossless


 

[Цитировать]

Bruckner - Symphony No. 5 - Herreweghe
Жанр: Symphony
Страна-производитель диска: Austria
Год издания диска: 2009
Издатель (лейбл): Harmonia mundi
Номер по каталогу: HMC 902011
Дата записи: 02.2008
Аудиокодек: FLAC
Тип рипа: tracks+.cue
Битрейт аудио: lossless
Продолжительность: 73.24
Источник: собственный рип
Наличие сканов в содержимом раздачи: да
Исполнители: Orchestre des Champs-Elysees, Phillipe Herreweghe

Треклист:

Symphony No. 5 in B flat major
01. Adagio - Allegro - 20.12
02. Adagio. Sehr langsam - 18.08
03. Scherzo. Molto vivace - 12.27
04. Adagio - Allegro moderato - 22.27
Total 73.36

Лог создания рипа:

Exact Audio Copy V0.99 prebeta 5 from 4. May 2009
EAC extraction logfile from 13. June 2011, 16:02
Orchestre des Champs Elyses, Philippe Herreweghe / Anton Bruckner - Symphonie no. 5 B-dur
Used drive : _NEC DVD_RW ND-3570A Adapter: 3 ID: 1
Read mode : SecureUtilize accurate stream : YesDefeat audio cache : YesMake use of C2 pointers : No
Read offset correction : 48Overread into Lead-In and Lead-Out : NoFill up missing offset samples with silence : YesDelete leading and trailing silent blocks : NoNull samples used in CRC calculations : YesUsed interface : Installed external ASPI interfaceGap handling : Appended to previous track
Used output format : User Defined EncoderSelected bitrate : 128 kBit/sQuality : HighAdd ID3 tag : NoCommand line compressor : C:\Program Files\Exact Audio Copy\Flac\flac.exeAdditional command line options : -8 -V -T "ARTIST=%a" -T "TITLE=%t" -T "ALBUM=%g" -T "DATE=%y" -T "TRACKNUMBER=%n" -T "GENRE=%m" -T "COMMENT=EAC FLAC -8" %s
TOC of the extracted CD
Track | Start | Length | Start sector | End sector --------------------------------------------------------- 1 | 0:00.00 | 20:21.00 | 0 | 91574 2 | 20:21.00 | 18:14.00 | 91575 | 173624 3 | 38:35.00 | 12:32.00 | 173625 | 230024 4 | 51:07.00 | 22:27.00 | 230025 | 331049
Track 1
Filename D:\Мои документы\Exact Audio Copy\Bruckner - Symphony No.5 - Herreweghe\01 - I. Adagio - Allegro.wav
Pre-gap length 0:00:02.00
Peak level 98.8 % Track quality 99.9 % Test CRC 0A6BFAB0 Copy CRC 0A6BFAB0 Accurately ripped (confidence 12) [0B4B6E99] Copy OK
Track 2
Filename D:\Мои документы\Exact Audio Copy\Bruckner - Symphony No.5 - Herreweghe\02 - II. Adagio.wav
Pre-gap length 0:00:08.82
Peak level 85.9 % Track quality 100.0 % Test CRC 8B932E80 Copy CRC 8B932E80 Accurately ripped (confidence 11) [21231B88] Copy OK
Track 3
Filename D:\Мои документы\Exact Audio Copy\Bruckner - Symphony No.5 - Herreweghe\03 - III. Scherzo, molto vivace (Schnell).wav
Pre-gap length 0:00:05.94
Peak level 98.8 % Track quality 100.0 % Test CRC F3EEC78C Copy CRC F3EEC78C Accurately ripped (confidence 12) [8D4236B0] Copy OK
Track 4
Filename D:\Мои документы\Exact Audio Copy\Bruckner - Symphony No.5 - Herreweghe\04 - IV. Adagio - Allegro moderato.wav
Pre-gap length 0:00:04.49
Peak level 98.8 % Track quality 100.0 % Test CRC 1565AE2C Copy CRC 1565AE2C Accurately ripped (confidence 12) [5231244C] Copy OK
All tracks accurately ripped
No errors occurred
End of status report

Содержание индексной карты (.CUE):

REM GENRE ClassicalREM DATE 2009REM DISCID 29113E04REM COMMENT "ExactAudioCopy v0.99pb5"PERFORMER "Orchestre des Champs Elyses, Philippe Herreweghe"TITLE "Anton Bruckner - Symphonie no. 5 B-dur"FILE "01 - I. Adagio - Allegro.wav" WAVE TRACK 01 AUDIO TITLE "I. Adagio - Allegro" PERFORMER "Orchestre des Champs Elyses, Philippe Herreweghe" FLAGS DCP INDEX 01 00:00:00 TRACK 02 AUDIO TITLE "II. Adagio" PERFORMER "Orchestre des Champs Elyses, Philippe Herreweghe" FLAGS DCP INDEX 00 20:12:13FILE "02 - II. Adagio.wav" WAVE INDEX 01 00:00:00 TRACK 03 AUDIO TITLE "III. Scherzo, molto vivace (Schnell)" PERFORMER "Orchestre des Champs Elyses, Philippe Herreweghe" FLAGS DCP INDEX 00 18:08:04FILE "03 - III. Scherzo, molto vivace (Schnell).wav" WAVE INDEX 01 00:00:00 TRACK 04 AUDIO TITLE "IV. Adagio - Allegro moderato" PERFORMER "Orchestre des Champs Elyses, Philippe Herreweghe" FLAGS DCP INDEX 00 12:27:38FILE "04 - IV. Adagio - Allegro moderato.wav" WAVE INDEX 01 00:00:00



Показать сообщения:    

Текущее время: 03-Дек 07:40

Часовой пояс: UTC + 3


Вы не можете начинать темы
Вы не можете отвечать на сообщения
Вы не можете редактировать свои сообщения
Вы не можете удалять свои сообщения
Вы не можете голосовать в опросах
Вы не можете прикреплять файлы к сообщениям
Вы не можете скачивать файлы