(Classical) Арам Хачатурян (A. Khachaturian) - Спартак, Гаянэ (Хачатурян), Маскарад (Kurtz) | Дмитрий Шостакович (D. Shostakovich) - Овод (Hughes) - 1997, APE (tracks+.cue) lossless


 

[Цитировать]

Khachaturian (Хачатурян): Spartacus (Спартак), Gayaneh (Гаянэ), Masquerade (Маскарад). Shostakovich (Шостакович): The Gadfly (Овод)
Жанр: Classical
Страна-производитель диска: UK
Год издания диска: 1997
Издатель (лейбл): HMVC
Номер по каталогу: 5721432
Дата записи: 1964/1977/1984
Аудиокодек: APE
Тип рипа: tracks+.cue
Битрейт аудио: lossless
Продолжительность: 68:50
Источник: собственный рип
Наличие сканов в содержимом раздачи: нет

Треклист:

Aram Khachaturian (1903-1978)
Spartacus (Highlights):
1. Variation of Aegina,
2. Adagio of Spartacus amd Phrygia,
3. The Entrance of Harmodius - Adagio of Aegina and Harmodius,
4. Dance of the Gaditanae - The Rebels approach
Gayaneh (Highlights):
5. Lezghinka,
6. Lullaby,
7. Storm,
8. Sabre Dance,
9. Mountaineers,
10. Invention
Aram Khachaturian
London Symphony Orchestra (1977)
Masquerade:
11. Waltz,
12. Galop
Efrem Kurtz
Philharmonia Orchestra (1964)
Dmitri Shostakovich (1906-1975)
13. The Gadfly: Romance.
Martin Milner, violin
Owain Arwel Hughes
Halle Orchestra (1984)

Лог создания рипа

Exact Audio Copy V1.0 beta 4 from 7. December 2014
Отчёт EAC об извлечении, выполненном 5. февраля 2015, 19:00
Khachaturian / Spartacus
Дисковод: Optiarc DVD RW AD-7200S Adapter: 1 ID: 0
Режим чтения : ДостоверностьИспользование точного потока : ДаОтключение кэша аудио : ДаИспользование указателей C2 : Нет
Коррекция смещения при чтении : 48Способность читать области Lead-in и Lead-out : НетЗаполнение пропущенных сэмплов тишиной : ДаУдаление блоков с тишиной в начале и конце : НетПри вычислениях CRC использовались нулевые сэмплы : ДаИнтерфейс : Встроенный Win32-интерфейс для Win NT/2000Обработка зазоров : Добавлено к предыдущему треку
Выходной формат : Пользовательский кодировщикВыбранный битрейт : 1024 kBit/sКачество : ВысокийДобавление ID3-тега : НетУтилита сжатия : C:\program files\Monkey's Audio\wapet.exeДополнительные параметры : %dest% -t "Genre=%genre%" -t "Artist=%artist%" -t "Title=%title%" -t "Album=%albumtitle%" -t "Year=%year%" -t "Track=%tracknr%" -t "Comment=%comment%" mac.exe %source% %dest% -c4000
TOC извлечённого CD
Трек | Старт | Длительность | Начальный сектор | Конечный сектор --------------------------------------------------------------------- 1 | 0:00.33 | 8:07.25 | 33 | 36582 2 | 8:07.58 | 9:49.40 | 36583 | 80797 3 | 17:57.23 | 7:29.30 | 80798 | 114502 4 | 25:26.53 | 6:59.67 | 114503 | 145994 5 | 32:26.45 | 2:40.43 | 145995 | 158037 6 | 35:07.13 | 5:28.20 | 158038 | 182657 7 | 40:35.33 | 4:59.07 | 182658 | 205089 8 | 45:34.40 | 2:33.45 | 205090 | 216609 9 | 48:08.10 | 2:04.13 | 216610 | 225922 10 | 50:12.23 | 4:48.10 | 225923 | 247532 11 | 55:00.33 | 4:19.25 | 247533 | 266982 12 | 59:19.58 | 2:55.55 | 266983 | 280162 13 | 62:15.38 | 6:34.72 | 280163 | 309784
Трек 1
Имя файла D:\Khachaturian\(1997) Spartacus\Khachaturian - Spartacus - 01. Khachaturian 'Spartacus' - 1 - Variation of Aegina.wav
Длина предзазора 0:00:02.33
Пиковый уровень 94.6 % Скорость извлечения 2.7 X Качество трека 99.9 % CRC теста 44ABD90E CRC копии 44ABD90E Точное извлечение (достоверность 3) [BE6D7255] (AR v2) Копирование... OK
Трек 2
Имя файла D:\Khachaturian\(1997) Spartacus\Khachaturian - Spartacus - 02. Khachaturian 'Spartacus' - 2 - Adagio of Spartacus and Phygia.wav
Длина предзазора 0:00:02.00
Пиковый уровень 100.0 % Скорость извлечения 3.4 X Качество трека 100.0 % CRC теста C2B7B16D CRC копии C2B7B16D Точное извлечение (достоверность 3) [51413929] (AR v2) Копирование... OK
Трек 3
Имя файла D:\Khachaturian\(1997) Spartacus\Khachaturian - Spartacus - 03. Khachaturian 'Spartacus' - 3 - The Entrance of Harmodius - Adagio of Aegina and Harmodius.wav
Длина предзазора 0:00:00.03
Пиковый уровень 77.3 % Скорость извлечения 3.8 X Качество трека 100.0 % CRC теста E6BC46F3 CRC копии E6BC46F3 Точное извлечение (достоверность 3) [3474C541] (AR v2) Копирование... OK
Трек 4
Имя файла D:\Khachaturian\(1997) Spartacus\Khachaturian - Spartacus - 04. Khachaturian 'Spartacus' - 4 - Dance of the Gaditanae - The Rebels Approach.wav
Длина предзазора 0:00:00.03
Пиковый уровень 97.3 % Скорость извлечения 4.1 X Качество трека 100.0 % CRC теста A91AEBBB CRC копии A91AEBBB Точное извлечение (достоверность 3) [B0E9B05A] (AR v2) Копирование... OK
Трек 5
Имя файла D:\Khachaturian\(1997) Spartacus\Khachaturian - Spartacus - 05. Khachaturian 'Gayaneh' - 1 - Lezghinka.wav
Длина предзазора 0:00:09.12
Пиковый уровень 97.7 % Скорость извлечения 3.7 X Качество трека 100.0 % CRC теста 65325915 CRC копии 65325915 Точное извлечение (достоверность 3) [4C905DBF] (AR v2) Копирование... OK
Трек 6
Имя файла D:\Khachaturian\(1997) Spartacus\Khachaturian - Spartacus - 06. Khachaturian 'Gayaneh' - 2 - Lullaby.wav
Длина предзазора 0:00:02.33
Пиковый уровень 38.5 % Скорость извлечения 4.3 X Качество трека 100.0 % CRC теста 8EAEAB2E CRC копии 8EAEAB2E Точное извлечение (достоверность 3) [5C92F66C] (AR v2) Копирование... OK
Трек 7
Имя файла D:\Khachaturian\(1997) Spartacus\Khachaturian - Spartacus - 07. Khachaturian 'Gayaneh' - 3 - Storm.wav
Длина предзазора 0:00:00.03
Пиковый уровень 97.7 % Скорость извлечения 4.5 X Качество трека 100.0 % CRC теста 0C0E28CE CRC копии 0C0E28CE Точное извлечение (достоверность 3) [825B6986] (AR v2) Копирование... OK
Трек 8
Имя файла D:\Khachaturian\(1997) Spartacus\Khachaturian - Spartacus - 08. Khachaturian 'Gayaneh' - 4 - Sabre Dance.wav
Длина предзазора 0:00:00.02
Пиковый уровень 97.7 % Скорость извлечения 4.1 X Качество трека 100.0 % CRC теста F77F44AA CRC копии F77F44AA Точное извлечение (достоверность 3) [D76FCB77] (AR v2) Копирование... OK
Трек 9
Имя файла D:\Khachaturian\(1997) Spartacus\Khachaturian - Spartacus - 09. Khachaturian 'Gayaneh' - 5 - Mountaineers.wav
Длина предзазора 0:00:00.02
Пиковый уровень 97.7 % Скорость извлечения 3.3 X Качество трека 99.9 % CRC теста FEFEC190 CRC копии FEFEC190 Точное извлечение (достоверность 3) [9E50CA72] (AR v2) Копирование... OK
Трек 10
Имя файла D:\Khachaturian\(1997) Spartacus\Khachaturian - Spartacus - 10. Khachaturian 'Gayaneh' - 6 - Invention.wav
Длина предзазора 0:00:03.10
Пиковый уровень 31.0 % Скорость извлечения 4.3 X Качество трека 99.9 % CRC теста CAAE34DC CRC копии CAAE34DC Точное извлечение (достоверность 3) [44F25C62] (AR v2) Копирование... OK
Трек 11
Имя файла D:\Khachaturian\(1997) Spartacus\Khachaturian - Spartacus - 11. Khachaturian 'Masquerade' - 1 - Waltz.wav
Длина предзазора 0:00:06.70
Пиковый уровень 97.6 % Скорость извлечения 4.9 X Качество трека 100.0 % CRC теста 3EBAB535 CRC копии 3EBAB535 Точное извлечение (достоверность 3) [D00D85DB] (AR v2) Копирование... OK
Трек 12
Имя файла D:\Khachaturian\(1997) Spartacus\Khachaturian - Spartacus - 12. Khachaturian 'Masquerade' - 2 - Galop.wav
Пиковый уровень 100.0 % Скорость извлечения 4.8 X Качество трека 100.0 % CRC теста 5FEA1751 CRC копии 5FEA1751 Точное извлечение (достоверность 3) [8FDDF652] (AR v2) Копирование... OK
Трек 13
Имя файла D:\Khachaturian\(1997) Spartacus\Khachaturian - Spartacus - 13. Shostakovich 'The Gadfly Romance'.wav
Длина предзазора 0:00:07.20
Пиковый уровень 76.6 % Скорость извлечения 5.4 X Качество трека 100.0 % CRC теста C9DCD9F3 CRC копии C9DCD9F3 Точное извлечение (достоверность 3) [A3358F67] (AR v2) Копирование... OK
Все треки извлечены точно
Ошибок не произошло
Конец отчёта
==== Контрольная сумма отчёта 359E6A84E33DBA48763353252B94695BD5C8D2591D159A83A591C91D2E20E157 ====

Содержание индексной карты (.CUE)

REM GENRE ClassicalREM DATE 1997REM DISCID C210220DREM COMMENT "ExactAudioCopy v1.0b4"CATALOG 0724357214322PERFORMER "Khachaturian"TITLE "Spartacus"FILE "Khachaturian - Spartacus - 01. Khachaturian 'Spartacus' - 1 - Variation of Aegina.wav" WAVE TRACK 01 AUDIO TITLE "Khachaturian 'Spartacus' - 1 - Variation of Aegina" PERFORMER "Khachaturian" PREGAP 00:00:33 INDEX 01 00:00:00 TRACK 02 AUDIO TITLE "Khachaturian 'Spartacus' - 2 - Adagio of Spartacus and Phygia" PERFORMER "Khachaturian" INDEX 00 08:05:25FILE "Khachaturian - Spartacus - 02. Khachaturian 'Spartacus' - 2 - Adagio of Spartacus and Phygia.wav" WAVE INDEX 01 00:00:00 TRACK 03 AUDIO TITLE "Khachaturian 'Spartacus' - 3 - The Entrance of Harmodius - Adagio of Aegina a..." PERFORMER "Khachaturian" INDEX 00 09:49:37FILE "Khachaturian - Spartacus - 03. Khachaturian 'Spartacus' - 3 - The Entrance of Harmodius - Adagio of Aegina and Harmodius.wav" WAVE INDEX 01 00:00:00 TRACK 04 AUDIO TITLE "Khachaturian 'Spartacus' - 4 - Dance of the Gaditanae - The Rebels Approach" PERFORMER "Khachaturian" INDEX 00 07:29:27FILE "Khachaturian - Spartacus - 04. Khachaturian 'Spartacus' - 4 - Dance of the Gaditanae - The Rebels Approach.wav" WAVE INDEX 01 00:00:00 TRACK 05 AUDIO TITLE "Khachaturian 'Gayaneh' - 1 - Lezghinka" PERFORMER "Khachaturian" INDEX 00 06:50:55FILE "Khachaturian - Spartacus - 05. Khachaturian 'Gayaneh' - 1 - Lezghinka.wav" WAVE INDEX 01 00:00:00 TRACK 06 AUDIO TITLE "Khachaturian 'Gayaneh' - 2 - Lullaby" PERFORMER "Khachaturian" INDEX 00 02:38:10FILE "Khachaturian - Spartacus - 06. Khachaturian 'Gayaneh' - 2 - Lullaby.wav" WAVE INDEX 01 00:00:00 TRACK 07 AUDIO TITLE "Khachaturian 'Gayaneh' - 3 - Storm" PERFORMER "Khachaturian" INDEX 00 05:28:17FILE "Khachaturian - Spartacus - 07. Khachaturian 'Gayaneh' - 3 - Storm.wav" WAVE INDEX 01 00:00:00 TRACK 08 AUDIO TITLE "Khachaturian 'Gayaneh' - 4 - Sabre Dance" PERFORMER "Khachaturian" INDEX 00 04:59:05FILE "Khachaturian - Spartacus - 08. Khachaturian 'Gayaneh' - 4 - Sabre Dance.wav" WAVE INDEX 01 00:00:00 TRACK 09 AUDIO TITLE "Khachaturian 'Gayaneh' - 5 - Mountaineers" PERFORMER "Khachaturian" INDEX 00 02:33:43FILE "Khachaturian - Spartacus - 09. Khachaturian 'Gayaneh' - 5 - Mountaineers.wav" WAVE INDEX 01 00:00:00 TRACK 10 AUDIO TITLE "Khachaturian 'Gayaneh' - 6 - Invention" PERFORMER "Khachaturian" INDEX 00 02:01:03FILE "Khachaturian - Spartacus - 10. Khachaturian 'Gayaneh' - 6 - Invention.wav" WAVE INDEX 01 00:00:00 TRACK 11 AUDIO TITLE "Khachaturian 'Masquerade' - 1 - Waltz" PERFORMER "Khachaturian" INDEX 00 04:41:15FILE "Khachaturian - Spartacus - 11. Khachaturian 'Masquerade' - 1 - Waltz.wav" WAVE INDEX 01 00:00:00FILE "Khachaturian - Spartacus - 12. Khachaturian 'Masquerade' - 2 - Galop.wav" WAVE TRACK 12 AUDIO TITLE "Khachaturian 'Masquerade' - 2 - Galop" PERFORMER "Khachaturian" INDEX 01 00:00:00 TRACK 13 AUDIO TITLE "Shostakovich 'The Gadfly Romance'" PERFORMER "Khachaturian" INDEX 00 02:48:35FILE "Khachaturian - Spartacus - 13. Shostakovich 'The Gadfly Romance'.wav" WAVE INDEX 01 00:00:00



Показать сообщения:    

Текущее время: 06-Дек 22:55

Часовой пояс: UTC + 3


Вы не можете начинать темы
Вы не можете отвечать на сообщения
Вы не можете редактировать свои сообщения
Вы не можете удалять свои сообщения
Вы не можете голосовать в опросах
Вы не можете прикреплять файлы к сообщениям
Вы не можете скачивать файлы