(Classical) Арам Хачатурян (A. Khachaturian) - Спартак, Гаянэ (Хачатурян) | Сергей Прокофьев (S. Prokofiev) - Ромео и Джульетта (Maazel) - 1987, APE (tracks+.cue) lossless


 

[Цитировать]

Aram Khachaturian (Хачатурян): Spartacus (Спартак), Gayaneh (Гаянэ) - Хачатурян; Sergej Prokofiev (Прокофьев): Romeo and Juliet (Ромео и Джульетта)
Жанр: Classical
Страна-производитель диска: UK
Год издания диска: 1987
Издатель (лейбл): DECCA
Номер по каталогу: 4177372
Дата записи: 1962/1973
Аудиокодек: APE
Тип рипа: tracks+.cue
Битрейт аудио: lossless
Продолжительность: 71:21
Источник: собственный рип
Наличие сканов в содержимом раздачи: нет

Треклист

Aram Khachaturian (1903-1978)
Spartacus (Excerpts):
01. Adagio Of Spartacus And Phrygia (09:09)
02. Variation Of Aegina And Bacchanalia (03:18)
03. Scene And Dance With Crotala (03:40)
04. Dance Of Gaditanae And Victory Of Spartacus (06:58)
Gayaneh (Excerpts):
05. Sabre Dance (02:26)
06. Aysheh's Awakening And Dance (05:10)
07. Lezghinka (02:43)
08. Gayaneh's Adagio (04:19)
09. Gopak (03:06)
Wiener Philharmoniker,
Aram Khachaturian (1962).
Sergej Prokofiev (1891–1953)
Romeo And Juliet (Excerpts):
10. Romeo (01:24)
11. Juliet As A Young Girl (03:19)
12. Dance Of The Knights (05:08)
13. Balcony Scene (11:05)
14. Romeo Resolves To Avenge Mercutio's Death - Death Of Tybalt (03:58)
15. The Last Farewell (05:32)
Cleveland Orchestra,
Lorin Maazel (1973).

Лог создания рипа

Exact Audio Copy V1.0 beta 4 from 7. December 2014
Отчёт EAC об извлечении, выполненном 6. февраля 2015, 20:34
Aram Khachaturian, Sergej Prokofiev / Spartacus, Gayaneh, Romeo and Juliet
Дисковод: Optiarc DVD RW AD-7200S Adapter: 1 ID: 0
Режим чтения : ДостоверностьИспользование точного потока : ДаОтключение кэша аудио : ДаИспользование указателей C2 : Нет
Коррекция смещения при чтении : 48Способность читать области Lead-in и Lead-out : НетЗаполнение пропущенных сэмплов тишиной : ДаУдаление блоков с тишиной в начале и конце : НетПри вычислениях CRC использовались нулевые сэмплы : ДаИнтерфейс : Встроенный Win32-интерфейс для Win NT/2000Обработка зазоров : Добавлено к предыдущему треку
Выходной формат : Пользовательский кодировщикВыбранный битрейт : 1024 kBit/sКачество : ВысокийДобавление ID3-тега : НетУтилита сжатия : C:\program files\Monkey's Audio\wapet.exeДополнительные параметры : %dest% -t "Genre=%genre%" -t "Artist=%artist%" -t "Title=%title%" -t "Album=%albumtitle%" -t "Year=%year%" -t "Track=%tracknr%" -t "Comment=%comment%" mac.exe %source% %dest% -c4000
TOC извлечённого CD
Трек | Старт | Длительность | Начальный сектор | Конечный сектор --------------------------------------------------------------------- 1 | 0:00.33 | 9:09.35 | 33 | 41242 2 | 9:09.68 | 3:18.47 | 41243 | 56139 3 | 12:28.40 | 3:40.35 | 56140 | 72674 4 | 16:09.00 | 6:58.00 | 72675 | 104024 5 | 23:07.00 | 2:26.33 | 104025 | 115007 6 | 25:33.33 | 5:10.35 | 115008 | 138292 7 | 30:43.68 | 2:43.10 | 138293 | 150527 8 | 33:27.03 | 4:19.42 | 150528 | 169994 9 | 37:46.45 | 3:06.03 | 169995 | 183947 10 | 40:52.48 | 1:24.20 | 183948 | 190267 11 | 42:16.68 | 3:19.47 | 190268 | 205239 12 | 45:36.40 | 5:08.33 | 205240 | 228372 13 | 50:44.73 | 11:05.70 | 228373 | 278317 14 | 61:50.68 | 3:58.27 | 278318 | 296194 15 | 65:49.20 | 5:32.48 | 296195 | 321142
Трек 1
Имя файла D:\Aram Khachaturian, Sergej Prokofiev\(1987) Spartacus, Gayaneh, Romeo and Juliet\Aram Khachaturian, Sergej Prokofiev - Spartacus, Gayaneh, Romeo and Juliet - 01. A. Khachaturian - Spartacus - Adagio of Spartacus and Phrygia.wav
Длина предзазора 0:00:02.33
Пиковый уровень 71.5 % Скорость извлечения 2.7 X Качество трека 99.9 % CRC теста AA4ECC8E CRC копии AA4ECC8E Точное извлечение (достоверность 7) [48AEF92E] (AR v2) Копирование... OK
Трек 2
Имя файла D:\Aram Khachaturian, Sergej Prokofiev\(1987) Spartacus, Gayaneh, Romeo and Juliet\Aram Khachaturian, Sergej Prokofiev - Spartacus, Gayaneh, Romeo and Juliet - 02. A. Khachaturian - Spartacus - Variation of Aegina and Bacchanalia.wav
Пиковый уровень 93.3 % Скорость извлечения 2.9 X Качество трека 100.0 % CRC теста 2C6D06FC CRC копии 2C6D06FC Точное извлечение (достоверность 7) [0F5451E1] (AR v2) Копирование... OK
Трек 3
Имя файла D:\Aram Khachaturian, Sergej Prokofiev\(1987) Spartacus, Gayaneh, Romeo and Juliet\Aram Khachaturian, Sergej Prokofiev - Spartacus, Gayaneh, Romeo and Juliet - 03. A. Khachaturian - Spartacus - Scene and dance with crotala.wav
Пиковый уровень 76.8 % Скорость извлечения 3.1 X Качество трека 100.0 % CRC теста DEB2FF11 CRC копии DEB2FF11 Точное извлечение (достоверность 7) [C50A81B9] (AR v2) Копирование... OK
Трек 4
Имя файла D:\Aram Khachaturian, Sergej Prokofiev\(1987) Spartacus, Gayaneh, Romeo and Juliet\Aram Khachaturian, Sergej Prokofiev - Spartacus, Gayaneh, Romeo and Juliet - 04. A. Khachaturian - Spartacus - Dance of Gaditanae and victory of Spartacus.wav
Пиковый уровень 73.6 % Скорость извлечения 3.4 X Качество трека 99.9 % CRC теста E3012E96 CRC копии E3012E96 Точное извлечение (достоверность 7) [F9C9AABC] (AR v2) Копирование... OK
Трек 5
Имя файла D:\Aram Khachaturian, Sergej Prokofiev\(1987) Spartacus, Gayaneh, Romeo and Juliet\Aram Khachaturian, Sergej Prokofiev - Spartacus, Gayaneh, Romeo and Juliet - 05. A. Khachaturian - Gayaneh - Sabre Dance.wav
Длина предзазора 0:00:03.60
Пиковый уровень 81.5 % Скорость извлечения 2.8 X Качество трека 99.9 % CRC теста A8D2D40F CRC копии A8D2D40F Точное извлечение (достоверность 6) [9F29840D] (AR v2) Копирование... OK
Трек 6
Имя файла D:\Aram Khachaturian, Sergej Prokofiev\(1987) Spartacus, Gayaneh, Romeo and Juliet\Aram Khachaturian, Sergej Prokofiev - Spartacus, Gayaneh, Romeo and Juliet - 06. A. Khachaturian - Gayaneh - Aysheh's awakening and dance.wav
Длина предзазора 0:00:02.38
Пиковый уровень 54.7 % Скорость извлечения 4.0 X Качество трека 100.0 % CRC теста 021403BA CRC копии 021403BA Точное извлечение (достоверность 7) [5EEDF2BD] (AR v2) Копирование... OK
Трек 7
Имя файла D:\Aram Khachaturian, Sergej Prokofiev\(1987) Spartacus, Gayaneh, Romeo and Juliet\Aram Khachaturian, Sergej Prokofiev - Spartacus, Gayaneh, Romeo and Juliet - 07. A. Khachaturian - Gayaneh - Lezghinka.wav
Длина предзазора 0:00:01.43
Пиковый уровень 79.7 % Скорость извлечения 3.7 X Качество трека 100.0 % CRC теста 9B73FC0F CRC копии 9B73FC0F Точное извлечение (достоверность 7) [F314FD51] (AR v2) Копирование... OK
Трек 8
Имя файла D:\Aram Khachaturian, Sergej Prokofiev\(1987) Spartacus, Gayaneh, Romeo and Juliet\Aram Khachaturian, Sergej Prokofiev - Spartacus, Gayaneh, Romeo and Juliet - 08. A. Khachaturian - Gayaneh - Gayaneh's Adagio.wav
Длина предзазора 0:00:00.53
Пиковый уровень 22.7 % Скорость извлечения 4.1 X Качество трека 100.0 % CRC теста EF0BA027 CRC копии EF0BA027 Точное извлечение (достоверность 7) [D20BB936] (AR v2) Копирование... OK
Трек 9
Имя файла D:\Aram Khachaturian, Sergej Prokofiev\(1987) Spartacus, Gayaneh, Romeo and Juliet\Aram Khachaturian, Sergej Prokofiev - Spartacus, Gayaneh, Romeo and Juliet - 09. A. Khachaturian - Gayaneh - Gopak.wav
Длина предзазора 0:00:02.47
Пиковый уровень 69.3 % Скорость извлечения 4.1 X Качество трека 100.0 % CRC теста 900F6C1E CRC копии 900F6C1E Точное извлечение (достоверность 7) [D06D11C9] (AR v2) Копирование... OK
Трек 10
Имя файла D:\Aram Khachaturian, Sergej Prokofiev\(1987) Spartacus, Gayaneh, Romeo and Juliet\Aram Khachaturian, Sergej Prokofiev - Spartacus, Gayaneh, Romeo and Juliet - 10. S. Prokofiev - Romeo and Juliet - Romeo.wav
Длина предзазора 0:00:10.28
Пиковый уровень 28.4 % Скорость извлечения 3.4 X Качество трека 100.0 % CRC теста 58CC8DD6 CRC копии 58CC8DD6 Точное извлечение (достоверность 6) [F8DD30F7] (AR v2) Копирование... OK
Трек 11
Имя файла D:\Aram Khachaturian, Sergej Prokofiev\(1987) Spartacus, Gayaneh, Romeo and Juliet\Aram Khachaturian, Sergej Prokofiev - Spartacus, Gayaneh, Romeo and Juliet - 11. S. Prokofiev - Romeo and Juliet - Juliet as a young girl.wav
Пиковый уровень 33.5 % Скорость извлечения 4.3 X Качество трека 100.0 % CRC теста 269AD59D CRC копии 269AD59D Точное извлечение (достоверность 6) [52862664] (AR v2) Копирование... OK
Трек 12
Имя файла D:\Aram Khachaturian, Sergej Prokofiev\(1987) Spartacus, Gayaneh, Romeo and Juliet\Aram Khachaturian, Sergej Prokofiev - Spartacus, Gayaneh, Romeo and Juliet - 12. S. Prokofiev - Romeo and Juliet - Dance of the knights.wav
Пиковый уровень 77.4 % Скорость извлечения 4.2 X Качество трека 99.9 % CRC теста 3CD928A8 CRC копии 3CD928A8 Точное извлечение (достоверность 6) [5A27433B] (AR v2) Копирование... OK
Трек 13
Имя файла D:\Aram Khachaturian, Sergej Prokofiev\(1987) Spartacus, Gayaneh, Romeo and Juliet\Aram Khachaturian, Sergej Prokofiev - Spartacus, Gayaneh, Romeo and Juliet - 13. S. Prokofiev - Romeo and Juliet - Balcony scene.wav
Пиковый уровень 95.0 % Скорость извлечения 5.3 X Качество трека 100.0 % CRC теста 82B78FDE CRC копии 82B78FDE Точное извлечение (достоверность 6) [023255A5] (AR v2) Копирование... OK
Трек 14
Имя файла D:\Aram Khachaturian, Sergej Prokofiev\(1987) Spartacus, Gayaneh, Romeo and Juliet\Aram Khachaturian, Sergej Prokofiev - Spartacus, Gayaneh, Romeo and Juliet - 14. S. Prokofiev - Romeo and Juliet - Romeo resolves to avenge Mercutio's death -
Пиковый уровень 94.4 % Скорость извлечения 4.5 X Качество трека 99.9 % CRC теста 4F3D57A9 CRC копии 4F3D57A9 Точное извлечение (достоверность 6) [F96E0AC6] (AR v2) Копирование... OK
Трек 15
Имя файла D:\Aram Khachaturian, Sergej Prokofiev\(1987) Spartacus, Gayaneh, Romeo and Juliet\Aram Khachaturian, Sergej Prokofiev - Spartacus, Gayaneh, Romeo and Juliet - 15. S. Prokofiev - Romeo and Juliet - The last farewell.wav
Длина предзазора 0:00:02.20
Пиковый уровень 34.4 % Скорость извлечения 4.9 X Качество трека 99.9 % CRC теста 9DF3D2EE CRC копии 9DF3D2EE Точное извлечение (достоверность 7) [7BD49148] (AR v2) Копирование... OK
Все треки извлечены точно
Ошибок не произошло
Конец отчёта
==== Контрольная сумма отчёта 71F1CC5DEC2B9A315574FB63BB627292E1CF00A066289887C58E84998DB98FB8 ====

Содержание индексной карты (.CUE)

REM GENRE ClassicalREM DATE 1987REM DISCID DD10B90FREM COMMENT "ExactAudioCopy v1.0b4"CATALOG 0028941773722PERFORMER "Aram Khachaturian, Sergej Prokofiev"TITLE "Spartacus, Gayaneh, Romeo and Juliet"FILE "01. A. Khachaturian - Spartacus - Adagio of Spartacus and Phrygia.wav" WAVE TRACK 01 AUDIO TITLE "A. Khachaturian - Spartacus - Adagio of Spartacus and Phrygia" PERFORMER "Aram Khachaturian, Sergej Prokofiev" ISRC GBF076210121 PREGAP 00:00:33 INDEX 01 00:00:00FILE "02. A. Khachaturian - Spartacus - Variation of Aegina and Bacchanalia.wav" WAVE TRACK 02 AUDIO TITLE "A. Khachaturian - Spartacus - Variation of Aegina and Bacchanalia" PERFORMER "Aram Khachaturian, Sergej Prokofiev" ISRC GBF076210122 INDEX 01 00:00:00FILE "03. A. Khachaturian - Spartacus - Scene and dance with crotala.wav" WAVE TRACK 03 AUDIO TITLE "A. Khachaturian - Spartacus - Scene and dance with crotala" PERFORMER "Aram Khachaturian, Sergej Prokofiev" ISRC GBF076210123 INDEX 01 00:00:00FILE "04. A. Khachaturian - Spartacus - Dance of Gaditanae and victory of Spartacus.wav" WAVE TRACK 04 AUDIO TITLE "A. Khachaturian - Spartacus - Dance of Gaditanae and victory of Spartacus" PERFORMER "Aram Khachaturian, Sergej Prokofiev" ISRC GBF076210124 INDEX 01 00:00:00 TRACK 05 AUDIO TITLE "A. Khachaturian - Gayaneh - Sabre Dance" PERFORMER "Aram Khachaturian, Sergej Prokofiev" ISRC GBF076210131 INDEX 00 06:54:15FILE "05. A. Khachaturian - Gayaneh - Sabre Dance.wav" WAVE INDEX 01 00:00:00 TRACK 06 AUDIO TITLE "A. Khachaturian - Gayaneh - Aysheh's awakening and dance" PERFORMER "Aram Khachaturian, Sergej Prokofiev" ISRC GBF076210132 INDEX 00 02:23:70FILE "06. A. Khachaturian - Gayaneh - Aysheh's awakening and dance.wav" WAVE INDEX 01 00:00:00 TRACK 07 AUDIO TITLE "A. Khachaturian - Gayaneh - Lezghinka" PERFORMER "Aram Khachaturian, Sergej Prokofiev" ISRC GBF076210134 INDEX 00 05:08:67FILE "07. A. Khachaturian - Gayaneh - Lezghinka.wav" WAVE INDEX 01 00:00:00 TRACK 08 AUDIO TITLE "A. Khachaturian - Gayaneh - Gayaneh's Adagio" PERFORMER "Aram Khachaturian, Sergej Prokofiev" ISRC GBF076210134 INDEX 00 02:42:32FILE "08. A. Khachaturian - Gayaneh - Gayaneh's Adagio.wav" WAVE INDEX 01 00:00:00 TRACK 09 AUDIO TITLE "A. Khachaturian - Gayaneh - Gopak" PERFORMER "Aram Khachaturian, Sergej Prokofiev" ISRC GBF076210135 INDEX 00 04:16:70FILE "09. A. Khachaturian - Gayaneh - Gopak.wav" WAVE INDEX 01 00:00:00 TRACK 10 AUDIO TITLE "S. Prokofiev - Romeo and Juliet - Romeo" PERFORMER "Aram Khachaturian, Sergej Prokofiev" ISRC GBF077340302 INDEX 00 02:55:50FILE "10. S. Prokofiev - Romeo and Juliet - Romeo.wav" WAVE INDEX 01 00:00:00FILE "11. S. Prokofiev - Romeo and Juliet - Juliet as a young girl.wav" WAVE TRACK 11 AUDIO TITLE "S. Prokofiev - Romeo and Juliet - Juliet as a young girl" PERFORMER "Aram Khachaturian, Sergej Prokofiev" ISRC GBF077340308 INDEX 01 00:00:00FILE "12. S. Prokofiev - Romeo and Juliet - Dance of the knights.wav" WAVE TRACK 12 AUDIO TITLE "S. Prokofiev - Romeo and Juliet - Dance of the knights" PERFORMER "Aram Khachaturian, Sergej Prokofiev" ISRC GBF077340311 INDEX 01 00:00:00FILE "13. S. Prokofiev - Romeo and Juliet - Balcony scene.wav" WAVE TRACK 13 AUDIO TITLE "S. Prokofiev - Romeo and Juliet - Balcony scene" PERFORMER "Aram Khachaturian, Sergej Prokofiev" ISRC GBF077340317 INDEX 01 00:00:00FILE "14. S. Prokofiev - Romeo and Juliet - Romeo resolves to avenge Mercutio's death - Death of Ty TRACK 14 AUDIO TITLE "S. Prokofiev - Romeo and Juliet - Romeo resolves to avenge Mercutio's death -..." PERFORMER "Aram Khachaturian, Sergej Prokofiev" ISRC GBF077340327 INDEX 01 00:00:00 TRACK 15 AUDIO TITLE "S. Prokofiev - Romeo and Juliet - The last farewell" PERFORMER "Aram Khachaturian, Sergej Prokofiev" ISRC GBF077340329 INDEX 00 03:56:07FILE "15. S. Prokofiev - Romeo and Juliet - The last farewell.wav" WAVE INDEX 01 00:00:00



Показать сообщения:    

Текущее время: 07-Дек 11:40

Часовой пояс: UTC + 3


Вы не можете начинать темы
Вы не можете отвечать на сообщения
Вы не можете редактировать свои сообщения
Вы не можете удалять свои сообщения
Вы не можете голосовать в опросах
Вы не можете прикреплять файлы к сообщениям
Вы не можете скачивать файлы