(Symphony/Oratorio) Виссарион Шебалин - Драматическая симфония; Родион Щедрин - Ленин в сердце народном / V. Shebalin - Dramatic Symphony; R. Shchedrin - Lenin in the People's Heart (Гаук, Рождественский) - 1988, FLAC (image+.cue) lossless


 

[Цитировать]

V. Shebalin - Dramatic Symphony; R. Shchedrin - Lenin in the People's Heart
Жанр: Symphony/Oratorio
Страна-производитель диска: СССР
Год издания диска: 1988
Издатель (лейбл): Мелодия
Номер по каталогу: MCD204
Дата записи: 1960, 1970
Серия:1917-1987 Revolution series
Аудиокодек: FLAC
Тип рипа: image+.cue
Битрейт аудио: lossless
Продолжительность: 70:55
Источник: скачано с
Наличие сканов в содержимом раздачи: да
Треклист:
Виссарион Шебалин (1902-1963)
Драматическая симфония "В. И. Ленин" по поэме Маяковского, соч.16 (1929-32, 2я ред. 1959) 35'14
01 I. Вступление. Allegro risoluto (9:30)
02 II. Largo (9:39)
03 III. Moderato non troppo (16:11)
Родион Щедрин (р. 1932)
04 "Ленин в сердце народном", оратория для солистов, хора и оркестра на народные слова (1969) 22'32
I. Вступление и Lamento I
II. Рассказ красноармейца Бельмаса
III. Lamento II
IV. Рассказ работницы Наторовой
V. Symphonia
VI. Эпилог
Революционные гимны
05 Рабочая Марсельеза (Гимн революции 1917)
06 Народовольческий гимн (Смело, друзья! Не теряйте)
07 Гимн демократической молодёжи
Исполнители:
Т.Антипова (меццо-сопрано), Л.Петров (бас), А.Орфенов (тенор), Н.Лепихова (сопрано)
Республиканский камерный хор, рук. А. Юрлов
Государственный симфонический оркестр Всесоюзного радио
Александр Гаук, дирижёр
15 апреля 1960 года. Первое исп. 2й редакции

Людмила Белобрагина, сопрано
Людмила Зыкина, контральто
Артур Эйзен, бас
Большой хор Всесоюзного радио, рук. К. Птица
Большой симфонический оркестр Всесоюзного радио
Дирижер Геннадий Рождественский
1970г.

Лог создания рипа

Exact Audio Copy V1.0 beta 3 from 29. August 2011
EAC extraction logfile from 26. May 2012, 19:20
Shebalin / Shchedrin / Dramtic Symphony, Lenin in the People's Heart, etc
Used drive : HP DVD Writer 1260t Adapter: 0 ID: 1
Read mode : SecureUtilize accurate stream : YesDefeat audio cache : YesMake use of C2 pointers : No
Read offset correction : 6Overread into Lead-In and Lead-Out : NoFill up missing offset samples with silence : YesDelete leading and trailing silent blocks : NoNull samples used in CRC calculations : YesUsed interface : Native Win32 interface for Win NT & 2000
Used output format : User Defined EncoderSelected bitrate : 1024 kBit/sQuality : HighAdd ID3 tag : NoCommand line compressor : C:\Program Files\Exact Audio Copy\FLAC\FLAC.EXEAdditional command line options : -8 -V -T "ARTIST=%artist%" -T "TITLE=%title%" -T "ALBUM=%albumtitle%" -T "DATE=%year%" -T "TRACKNUMBER=%tracknr%" -T "GENRE=%genre%" -T "PERFORMER=%albuminterpret%" -T "COMPOSER=%composer%" %haslyrics%--tag-from-file=LYRICS="%lyricsfile%"%haslyrics% -T "ALBUMARTIST=%albumartist%" -T "DISCNUMBER=%cdnumber%" -T "TOTALDISCS=%totalcds%" -T "TOTALTRACKS=%numtracks%" -T "COMMENT=%comment%" %source% -o %dest%
TOC of the extracted CD
Track | Start | Length | Start sector | End sector --------------------------------------------------------- 1 | 0:00.33 | 9:30.32 | 33 | 42814 2 | 9:30.65 | 9:39.13 | 42815 | 86252 3 | 19:10.03 | 16:11.02 | 86253 | 159079 4 | 35:21.05 | 22:52.28 | 159080 | 262007 5 | 58:13.33 | 5:15.20 | 262008 | 285652 6 | 63:28.53 | 3:50.15 | 285653 | 302917 7 | 67:18.68 | 3:36.55 | 302918 | 319172
Range status and errors
Selected range
Filename H:\torrent music\Shebalin - Dramatic Symphony, Shchedrin - Lenin in the People's Heart, Etc. (USSR Radio SO - Gauk, Roshdestvensky)(MELODIYA)\Disc\Shebalin , Shchedrin - Dramtic Symphony, Lenin in the People's Heart, etc.wav
Peak level 100.0 % Extraction speed 6.8 X Range quality 100.0 % Test CRC C565E435 Copy CRC C565E435 Copy OK
No errors occurred
AccurateRip summary
Track 1 accurately ripped (confidence 1) [B056FE2D] (AR v1)Track 2 accurately ripped (confidence 1) [89A6B48B] (AR v1)Track 3 accurately ripped (confidence 1) [FC13612B] (AR v1)Track 4 accurately ripped (confidence 1) [70ECFBE5] (AR v1)Track 5 accurately ripped (confidence 1) [13BDEB6B] (AR v1)Track 6 accurately ripped (confidence 1) [668BB7B0] (AR v1)Track 7 accurately ripped (confidence 1) [FC8A18B8] (AR v1)
All tracks accurately ripped
End of status report
==== Log checksum 5CBF103C73ACDF869F3BE0F33EF0B4CA0B84EE5217E6D9A9940E9D58D158BEC9 ====
------------------------------------------------------------
Exact Audio Copy V1.0 beta 3 from 29. August 2011
EAC extraction logfile from 26. May 2012, 19:20
Shebalin / Shchedrin / Dramtic Symphony, Lenin in the People's Heart, etc
Used drive : HP DVD Writer 1260t Adapter: 0 ID: 1
Read mode : SecureUtilize accurate stream : YesDefeat audio cache : YesMake use of C2 pointers : No
Read offset correction : 6Overread into Lead-In and Lead-Out : NoFill up missing offset samples with silence : YesDelete leading and trailing silent blocks : NoNull samples used in CRC calculations : YesUsed interface : Native Win32 interface for Win NT & 2000
Used output format : User Defined EncoderSelected bitrate : 1024 kBit/sQuality : HighAdd ID3 tag : NoCommand line compressor : C:\Program Files\Exact Audio Copy\FLAC\FLAC.EXEAdditional command line options : -8 -V -T "ARTIST=%artist%" -T "TITLE=%title%" -T "ALBUM=%albumtitle%" -T "DATE=%year%" -T "TRACKNUMBER=%tracknr%" -T "GENRE=%genre%" -T "PERFORMER=%albuminterpret%" -T "COMPOSER=%composer%" %haslyrics%--tag-from-file=LYRICS="%lyricsfile%"%haslyrics% -T "ALBUMARTIST=%albumartist%" -T "DISCNUMBER=%cdnumber%" -T "TOTALDISCS=%totalcds%" -T "TOTALTRACKS=%numtracks%" -T "COMMENT=%comment%" %source% -o %dest%
TOC of the extracted CD
Track | Start | Length | Start sector | End sector --------------------------------------------------------- 1 | 0:00.33 | 9:30.32 | 33 | 42814 2 | 9:30.65 | 9:39.13 | 42815 | 86252 3 | 19:10.03 | 16:11.02 | 86253 | 159079 4 | 35:21.05 | 22:52.28 | 159080 | 262007 5 | 58:13.33 | 5:15.20 | 262008 | 285652 6 | 63:28.53 | 3:50.15 | 285653 | 302917 7 | 67:18.68 | 3:36.55 | 302918 | 319172
Range status and errors
Selected range
Filename H:\torrent music\Shebalin - Dramatic Symphony, Shchedrin - Lenin in the People's Heart, Etc. (USSR Radio SO - Gauk, Roshdestvensky)(MELODIYA)\Disc\Shebalin , Shchedrin - Dramtic Symphony, Lenin in the People's Heart, etc.wav
Peak level 100.0 % Extraction speed 6.8 X Range quality 100.0 % Test CRC C565E435 Copy CRC C565E435 Copy OK
No errors occurred
AccurateRip summary
Track 1 accurately ripped (confidence 1) [B056FE2D] (AR v1)Track 2 accurately ripped (confidence 1) [89A6B48B] (AR v1)Track 3 accurately ripped (confidence 1) [FC13612B] (AR v1)Track 4 accurately ripped (confidence 1) [70ECFBE5] (AR v1)Track 5 accurately ripped (confidence 1) [13BDEB6B] (AR v1)Track 6 accurately ripped (confidence 1) [668BB7B0] (AR v1)Track 7 accurately ripped (confidence 1) [FC8A18B8] (AR v1)
All tracks accurately ripped
End of status report
==== Log checksum 5CBF103C73ACDF869F3BE0F33EF0B4CA0B84EE5217E6D9A9940E9D58D158BEC9 ====
Доп. информация: Хорошим музыкантам соцреализм не мешал полноценно реализовывать творческую фантазию, даже в сочинениях на такую деликатную тему как "вождь мирового пролетариата". Известный композитор советских времён, будущий директор Московской консерватории Виссарион Шебалин в Драматической симфонии "В.И. Ленин" (1931), как и Шостакович во 2й и 3й, отдал дань агитационному партийному искусству. Тем не менее, интонационный язык здесь у него достаточно сложный, а его истоки ведут к Танееву (симфония c-moll), Мясковскому (6я) и необарокко.
Оратория Родиона Щедрина "Ленин в сердце народном" (1969), написанная беспартийным автором, была чуть ли не единственным нетрескучим сочинением на тему. Но главное, в чём, действительно, повезло оратории, — она попала в сферу притяжения музыкальных открытий новой фольклорной волны (всё сочинение проникнуто русской архаикой), а кроме того выдержана в современной практически авангардной манере, не менее сложной, чем у Лютославского и Пендерецкого (недаром критики навострили уши по поводу польских достижений - сонорики и алеаторики).

О диске

Симфония "Ленин" была написана Шебалиным по совету Маяковского (композитор был творчески связан с поэтом совместной работой над спектаклями в театре Мейерхольда). С одной стороны, эту вещь можно расценивать как соцреализм - в ней Шебалин, отдал дань агитационному искусству, с другой же - музыка явно модернистская, отмеченная жёсткостью тембров, тонким и сложным переплетением мелодических линий, полифонической насыщенностью письма. Первая часть (написанная в форме монументальной фуги) - обобщённое раскрытие темы революции, героического образа Ленина. Напряженность интонаций, широта скандированного ритма придают главной теме характер ораторской декламации. Образы второй части (Ларго) траурны. Её содержание - смерть Ленина, всенародное горе, последнее прощание с вождём. Здесь впервые вступает хор: "Вся Москва, Промёрзшая земля дрожит от гула". Особенно красиво звучат лирические места, проникнутые русским народным колоритом. Финал симфонии - пророчество полное пафоса, предрекающее гибель капитализма: "Придёт когда-нибудь человек борец, каратель, мститель". На фоне лейтмотива, звучащего как героический призыв, разворачивается хоровое фугато. Вся часть, при единой линии нарастания, строится на динамических контрастах. Вслед за ярким тутти на словах "Завершается гнева нарастанье восстаньем", звучит пианиссимо как приговор капиталистам: "По всему по этому в глуши Симбирска родился Ленин"! Критика разгромила симфонию за формализм и отсутствие ярких песенных интонаций, партитура её была утрачена при пожаре и восстановлена автором в 1959г. Здесь представлена новая редакция в исполнении Гаука, ГАСО, Капеллы Юрлова и звёзд Большого театра.
Оратория Щедрина «Ленин в сердце народном» дня солистов, хора и оркестра (1969) попала в сферу притяжения музыкальных открытий, сделанных Щедриным в его «современных русских пассионах». Если для западных пассионов принято обращение к старинным хоралам и псалмодиям, то наш композитор обращается к аналогичным пластам традиционной русской культуры — народным плачам, голошениям, былинному речитативу. По аналогии с западным «Stabat Mater dolorosa», идеей и интонацией эпического плача, но на русский лад, проникнута вся оратория. Наряду с начальным бьлинно-речитативным текстом «Это было в Москве белокаменной», в музыке проводятся несколько видов lamento. Всё сочинение выдержано в современной практически авангардной манере, не менее сложной, чем у Лютославского и Пендерецкого. Вся партитура наполнена сонорикой и алеаторикой партий (внеметричным движением, кластерами, сверхмногоголосием, полифонией пластов). Авангардны и тексты - бытовые, прозаические (рассказ бывшего латышского стрелка Бельмаса, который нёс дежурство в Горках, о том, как он, услышав объявление о смерти Ленина, не хотел в это верить и закричал «Ленин жив!»; другой — воспоминание работницы Наторовой, как она пришила пуговицу на пальто вождя), и еще раз — народный тембр Л.Зыкиной, которой поручено замечательное заключительное «колыбельное» соло. Если суммировать стилистику этого «Плача», то он составит вклад не столько в лениниану, сколько в современную «руссиану». Именно в таком колорите слышали ораторию, например, французские коллеги.



Показать сообщения:    

Текущее время: 08-Дек 23:08

Часовой пояс: UTC + 3


Вы не можете начинать темы
Вы не можете отвечать на сообщения
Вы не можете редактировать свои сообщения
Вы не можете удалять свои сообщения
Вы не можете голосовать в опросах
Вы не можете прикреплять файлы к сообщениям
Вы не можете скачивать файлы