(Classical) Bach, Johann Christian - Sinfonia Concertante 1-4 (London Festival Orchestra, Ross Pople ) - 2002, FLAC (tracks+.cue) lossless


 

[Цитировать]

Bach, Johann Christian - Sinfonia Concertante 1-4 (London Festival Orchestra, Ross Pople )
Жанр: Classical
Страна-производитель диска: Netherlands
Год издания диска: 2002
Издатель (лейбл): Brilliant Classics
Номер по каталогу: 99785/5
Дата записи: 1994
Аудиокодек: FLAC
Тип рипа: tracks+.cue
Битрейт аудио: lossless
Продолжительность: 59:34
Источник: собственный рип
сайт-источник/ник/другое: Из личной коллекции
Наличие сканов в содержимом раздачи: да
Треклист:
JOHANN CHRISTIAN BACH (1735-1782)
Symphonie Concertante for 2 violins, cello & orchestra in G major, CW C32 (T.284-1)
01. I. Allegro [00:06:17]
02. II. Andante [00:04:12]
03. III. Menuetto [00:05:38]
Symphonie Concertante for flute, 2 clarinets, bassoon, 2 horns & orchestra in E flat major, CW C41 (T.290-9)
04. I. Allegro assai [00:06:44]
05. II. Larghetto [00:04:15]
06. III. Menuetto [00:05:50]
Symphonie Concertante for violin, cello & orchestra in A major, CW C34 (T.284-4)
07. I. Andante di molto [00:07:48]
08. II. Rondeau, allegro assai [00:05:45]
Symphonie Concertante for oboes, horns, violins, violas, cello & orchestra in E flat major, CW C40 (T.288-7)
09. I. Andante [00:08:26]
10. II. Menuetto [00:04:34]
Исполнители:
London Festival Orchestra, Ross Pople

Лог создания рипа

Exact Audio Copy V0.99 prebeta 5 from 4. May 2009
EAC extraction logfile from 2. December 2009, 11:50
Ross Pople, London Festival Orchestra / Bach, Johann Christian. Sinfonia Concertante 1-4
Used drive : PLEXTOR DVDR PX-800A Adapter: 1 ID: 0
Read mode : SecureUtilize accurate stream : YesDefeat audio cache : YesMake use of C2 pointers : No
Read offset correction : 48Overread into Lead-In and Lead-Out : NoFill up missing offset samples with silence : YesDelete leading and trailing silent blocks : NoNull samples used in CRC calculations : NoUsed interface : Native Win32 interface for Win NT & 2000Gap handling : Appended to previous track
Used output format : User Defined EncoderSelected bitrate : 1024 kBit/sQuality : HighAdd ID3 tag : NoCommand line compressor : C:\Program Files\Exact Audio Copy\FLAC\FLAC.EXEAdditional command line options : -6 -V -T "ARTIST=%a" -T "TITLE=%t" -T "ALBUM=%g" -T "DATE=%y" -T "TRACKNUMBER=%n" -T "GENRE=%m" -T "COMMENT=%e" %s -o %d
TOC of the extracted CD
Track | Start | Length | Start sector | End sector --------------------------------------------------------- 1 | 0:00.32 | 6:17.28 | 32 | 28334 2 | 6:17.60 | 4:12.57 | 28335 | 47291 3 | 10:30.42 | 5:38.33 | 47292 | 72674 4 | 16:09.00 | 6:44.12 | 72675 | 102986 5 | 22:53.12 | 4:15.45 | 102987 | 122156 6 | 27:08.57 | 5:50.08 | 122157 | 148414 7 | 32:58.65 | 7:48.67 | 148415 | 183581 8 | 40:47.57 | 5:45.45 | 183582 | 209501 9 | 46:33.27 | 8:26.70 | 209502 | 247521 10 | 55:00.22 | 4:34.43 | 247522 | 268114
Track 1
Filename E:\1111\Bach,Johann_Christian.Sinfonia_Concertante_1-4-Ross_Pople(Brilliant)\01 - Symphonie Concertante in G major for 2 Violins and Cello -1 Allegro.wav
Pre-gap length 0:00:02.32
Peak level 89.3 % Track quality 100.0 % Test CRC 387E8DA2 Copy CRC 387E8DA2 Accurately ripped (confidence 8) [13E9E296] Copy OK
Track 2
Filename E:\1111\Bach,Johann_Christian.Sinfonia_Concertante_1-4-Ross_Pople(Brilliant)\02 - Symphonie Concertante in G major for 2 Violins and Cello -2 Andante.wav
Pre-gap length 0:00:02.23
Peak level 66.0 % Track quality 100.0 % Test CRC 00D4EB8B Copy CRC 00D4EB8B Accurately ripped (confidence 8) [0F65057B] Copy OK
Track 3
Filename E:\1111\Bach,Johann_Christian.Sinfonia_Concertante_1-4-Ross_Pople(Brilliant)\03 - Symphonie Concertante in G major for 2 Violins and Cello -3 Menuetto.wav
Pre-gap length 0:00:02.05
Peak level 97.3 % Track quality 100.0 % Test CRC 040385CE Copy CRC 040385CE Accurately ripped (confidence 8) [A9D710A3] Copy OK
Track 4
Filename E:\1111\Bach,Johann_Christian.Sinfonia_Concertante_1-4-Ross_Pople(Brilliant)\04 - Symphonie Concertante in E flat major for 2Clarinets and Bassoon -1 Allegro assai.wav
Pre-gap length 0:00:07.33
Peak level 91.2 % Track quality 100.0 % Test CRC 5C3B13A9 Copy CRC 5C3B13A9 Accurately ripped (confidence 8) [E2194C1E] Copy OK
Track 5
Filename E:\1111\Bach,Johann_Christian.Sinfonia_Concertante_1-4-Ross_Pople(Brilliant)\05 - Symphonie Concertante in E flat major for 2Clarinets and Bassoon -2 Larghetto.wav
Pre-gap length 0:00:05.15
Peak level 56.3 % Track quality 100.0 % Test CRC 6EEAD272 Copy CRC 6EEAD272 Accurately ripped (confidence 8) [CE52DD41] Copy OK
Track 6
Filename E:\1111\Bach,Johann_Christian.Sinfonia_Concertante_1-4-Ross_Pople(Brilliant)\06 - Symphonie Concertante in E flat major for 2Clarinets and Bassoon -3 Menuetto.wav
Pre-gap length 0:00:03.25
Peak level 79.5 % Track quality 100.0 % Test CRC 3E1FDB60 Copy CRC 3E1FDB60 Accurately ripped (confidence 8) [88023D5B] Copy OK
Track 7
Filename E:\1111\Bach,Johann_Christian.Sinfonia_Concertante_1-4-Ross_Pople(Brilliant)\07 - Symphonie Concertante A major for Violin and Cello -1 Andante di molto.wav
Pre-gap length 0:00:08.58
Peak level 92.3 % Track quality 100.0 % Test CRC E8761FBD Copy CRC E8761FBD Accurately ripped (confidence 8) [8A3D4CAD] Copy OK
Track 8
Filename E:\1111\Bach,Johann_Christian.Sinfonia_Concertante_1-4-Ross_Pople(Brilliant)\08 - Symphonie Concertante A major for Violin and Cello -2 Rondeau, allegro assai.wav
Pre-gap length 0:00:04.72
Peak level 82.2 % Track quality 100.0 % Test CRC 77425995 Copy CRC 77425995 Accurately ripped (confidence 7) [406A4C2C] Copy OK
Track 9
Filename E:\1111\Bach,Johann_Christian.Sinfonia_Concertante_1-4-Ross_Pople(Brilliant)\09 - Symphonie Concertante in E flat major for 2 Violas, 2 Oboes, 2 HHorns and Cello -1 Andante.wav
Pre-gap length 0:00:09.32
Peak level 64.7 % Track quality 100.0 % Test CRC 3B2E945B Copy CRC 3B2E945B Accurately ripped (confidence 6) [7A67BC2A] Copy OK
Track 10
Filename E:\1111\Bach,Johann_Christian.Sinfonia_Concertante_1-4-Ross_Pople(Brilliant)\10 - Symphonie Concertante in E flat major for 2 Violas, 2 Oboes, 2 HHorns and Cello -2 Menuetto.wav
Pre-gap length 0:00:06.07
Peak level 81.5 % Track quality 100.0 % Test CRC 2184EEB9 Copy CRC 2184EEB9 Accurately ripped (confidence 6) [E0CBC5EA] Copy OK
All tracks accurately ripped
No errors occurred
End of status report

Содержание индексной карты (.CUE)

REM GENRE ClassicalREM DATE 1994REM DISCID 8F0DF60AREM COMMENT "ExactAudioCopy v0.99pb5"PERFORMER "Ross Pople, London Festival Orchestra"TITLE "Bach, Johann Christian. Sinfonia Concertante 1-4"FILE "01 - Symphonie Concertante in G major for 2 Violins and Cello -1 Allegro.wav" WAVE TRACK 01 AUDIO TITLE "Symphonie Concertante in G major for 2 Violins and Cello -1 Allegro" PERFORMER "Ross Pople, London Festival Orchestra" PREGAP 00:00:32 INDEX 01 00:00:00 TRACK 02 AUDIO TITLE "Symphonie Concertante in G major for 2 Violins and Cello -2 Andante" PERFORMER "Ross Pople, London Festival Orchestra" INDEX 00 06:15:05FILE "02 - Symphonie Concertante in G major for 2 Violins and Cello -2 Andante.wav" WAVE INDEX 01 00:00:00 TRACK 03 AUDIO TITLE "Symphonie Concertante in G major for 2 Violins and Cello -3 Menuetto" PERFORMER "Ross Pople, London Festival Orchestra" INDEX 00 04:10:52FILE "03 - Symphonie Concertante in G major for 2 Violins and Cello -3 Menuetto.wav" WAVE INDEX 01 00:00:00 TRACK 04 AUDIO TITLE "Symphonie Concertante in E flat major for 2Clarinets and Bassoon -1 Allegro a..." PERFORMER "Ross Pople, London Festival Orchestra" INDEX 00 05:31:00FILE "04 - Symphonie Concertante in E flat major for 2Clarinets and Bassoon -1 Allegro assai.wav" WAVE INDEX 01 00:00:00 TRACK 05 AUDIO TITLE "Symphonie Concertante in E flat major for 2Clarinets and Bassoon -2 Larghetto" PERFORMER "Ross Pople, London Festival Orchestra" INDEX 00 06:38:72FILE "05 - Symphonie Concertante in E flat major for 2Clarinets and Bassoon -2 Larghetto.wav" WAVE INDEX 01 00:00:00 TRACK 06 AUDIO TITLE "Symphonie Concertante in E flat major for 2Clarinets and Bassoon -3 Menuetto" PERFORMER "Ross Pople, London Festival Orchestra" INDEX 00 04:12:20FILE "06 - Symphonie Concertante in E flat major for 2Clarinets and Bassoon -3 Menuetto.wav" WAVE INDEX 01 00:00:00 TRACK 07 AUDIO TITLE "Symphonie Concertante A major for Violin and Cello -1 Andante di molto" PERFORMER "Ross Pople, London Festival Orchestra" INDEX 00 05:41:25FILE "07 - Symphonie Concertante A major for Violin and Cello -1 Andante di molto.wav" WAVE INDEX 01 00:00:00 TRACK 08 AUDIO TITLE "Symphonie Concertante A major for Violin and Cello -2 Rondeau, allegro assai" PERFORMER "Ross Pople, London Festival Orchestra" INDEX 00 07:43:70FILE "08 - Symphonie Concertante A major for Violin and Cello -2 Rondeau, allegro assai.wav" WAVE INDEX 01 00:00:00 TRACK 09 AUDIO TITLE "Symphonie Concertante in E flat major for 2 Violas, 2 Oboes, 2 HHorns and Cel..." PERFORMER "Ross Pople, London Festival Orchestra" INDEX 00 05:36:13FILE "09 - Symphonie Concertante in E flat major for 2 Violas, 2 Oboes, 2 HHorns and Cello -1 Andante.wav" WAVE INDEX 01 00:00:00 TRACK 10 AUDIO TITLE "Symphonie Concertante in E flat major for 2 Violas, 2 Oboes, 2 HHorns and Cel..." PERFORMER "Ross Pople, London Festival Orchestra" INDEX 00 08:20:63FILE "10 - Symphonie Concertante in E flat major for 2 Violas, 2 Oboes, 2 HHorns and Cello -2 Menuetto.wav" WAVE INDEX 01 00:00:00
Доп. информация: Recording: 1994 Licensed from ASV, UK
mp3 - http://rutracker.org/forum/viewtopic.php?t=4599568



Показать сообщения:    

Текущее время: 08-Дек 21:12

Часовой пояс: UTC + 3


Вы не можете начинать темы
Вы не можете отвечать на сообщения
Вы не можете редактировать свои сообщения
Вы не можете удалять свои сообщения
Вы не можете голосовать в опросах
Вы не можете прикреплять файлы к сообщениям
Вы не можете скачивать файлы