(Orchestral) Н.Мясковский - Симфонии №№16 и 21 (Константин Иванов) | Симфонии №№17, 22, 25 и 27 (Евгений Светланов) - 2014, FLAC (image+.cue) lossless


 

[Цитировать]

Nikolay Myaskovsky
Selected Symphonies

The USSR State Symphony Orchestra
K.Ivanov | E.Svetlanov
-
-
- Жанр: Orchestral
Страна-производитель диска: Россия
Год издания диска: 2014
Издатель (лейбл): Мелодия
Дата записи: 1950/71/80/91/92
Аудиокодек: FLAC
Тип рипа: image+.cue
Битрейт аудио: lossless
Продолжительность: 3:24'21''
Источник: собственный рип
Наличие сканов в содержимом раздачи: да
Треклист:

CD1

[01] Симфония №16: I. Allegro vivace
[02] II. Andantino e semplice (quasi allegretto)
[03] III. Sostenuto. Andante marciale ma sostenuto
[04] IV. Tempo precedente. Allegro, ma non troppo
[05] Симфония №22: I. Lento. Allegro non troppo
[06] II. Andante con duolo (quasi adagio)
[07] III. Allegro energico, ma non troppo vivo

Лог создания рипа

Exact Audio Copy V1.0 beta 3 from 29. August 2011
EAC extraction logfile from 20. November 2014, 21:20
The USSR State Symphony Orchestra, conductors E. Svetlanov, K. Ivanov / Myaskovsky- Selected Symphonies. CD1
Used drive : HL-DT-STDVD+-RW GU90N Adapter: 0 ID: 0
Read mode : SecureUtilize accurate stream : YesDefeat audio cache : YesMake use of C2 pointers : No
Read offset correction : 102Overread into Lead-In and Lead-Out : NoFill up missing offset samples with silence : YesDelete leading and trailing silent blocks : NoNull samples used in CRC calculations : YesUsed interface : Native Win32 interface for Win NT & 2000
Used output format : User Defined EncoderSelected bitrate : 1024 kBit/sQuality : HighAdd ID3 tag : NoCommand line compressor : C:\Program Files (x86)\FLAC\flac.exeAdditional command line options : -T "COMMENT=rip by el coronel" -8 -V %source%
TOC of the extracted CD
Track | Start | Length | Start sector | End sector --------------------------------------------------------- 1 | 0:00.00 | 7:55.25 | 0 | 35649 2 | 7:55.25 | 7:09.21 | 35650 | 67845 3 | 15:04.46 | 9:36.32 | 67846 | 111077 4 | 24:41.03 | 10:24.74 | 111078 | 157951 5 | 35:06.02 | 16:43.02 | 157952 | 233178 6 | 51:49.04 | 11:12.00 | 233179 | 283578 7 | 63:01.04 | 8:29.39 | 283579 | 321792
Range status and errors
Selected range
Filename F:\Music\Myaskovsky - Selected works (Melodiya)\CD1.wav
Peak level 90.0 % Extraction speed 4.5 X Range quality 100.0 % Test CRC F6BFCF9F Copy CRC F6BFCF9F Copy OK
No errors occurred
AccurateRip summary
Track 1 not present in databaseTrack 2 not present in databaseTrack 3 not present in databaseTrack 4 not present in databaseTrack 5 not present in databaseTrack 6 not present in databaseTrack 7 not present in database
None of the tracks are present in the AccurateRip database
End of status report
==== Log checksum A98E0F263A84817D656B0FA96F65C6562A5047C4CA1FA8A1446432B218AA9E84 ====

Содержание индексной карты (.CUE)

REM GENRE ClassicalREM DATE 2014REM DISCID 5910C207REM COMMENT "ExactAudioCopy v1.0b3"PERFORMER "The USSR State Symphony Orchestra, conductors E. Svetlanov, K. Ivanov"TITLE "Myaskovsky- Selected Symphonies. CD1"FILE "CD1.flac" WAVE TRACK 01 AUDIO TITLE "Symphony No. 16 in F major: I. Allegro vivace" PERFORMER "The USSR State Symphony Orchestra, conductor K. Ivanov" INDEX 01 00:00:00 TRACK 02 AUDIO TITLE "II. Andantino e semplice (quasi allegretto)" PERFORMER "The USSR State Symphony Orchestra, conductor K. Ivanov" INDEX 01 07:55:25 TRACK 03 AUDIO TITLE "III. Sostenuto. Andante marciale ma sostenuto" PERFORMER "The USSR State Symphony Orchestra, conductor K. Ivanov" INDEX 01 15:04:46 TRACK 04 AUDIO TITLE "IV. Tempo precedente. Allegro, ma non troppo" PERFORMER "The USSR State Symphony Orchestra, conductor K. Ivanov" INDEX 01 24:41:03 TRACK 05 AUDIO TITLE "Symphony-Ballad No. 22 in B minor: I. Lento. Allegro non troppo" PERFORMER "The USSR State Symphony Orchestra, conductor E. Svetlanov" INDEX 01 35:06:02 TRACK 06 AUDIO TITLE "II. Andante con duolo (quasi adagio)" PERFORMER "The USSR State Symphony Orchestra, conductor E. Svetlanov" INDEX 01 51:49:04 TRACK 07 AUDIO TITLE "III. Allegro energico, ma non troppo vivo" PERFORMER "The USSR State Symphony Orchestra, conductor E. Svetlanov" INDEX 01 63:01:04

CD2

[01] Симфония №17: I. Lento. Allegro molto agitato
[02] II. Lento assai. Andantino ma non troppo
[03] III. Allegro poco vivace
[04] IV. Andante. Allegro molto animato
[05] Симфония №21

Лог создания рипа

Exact Audio Copy V1.0 beta 4 from 7. December 2014
EAC extraction logfile from 24. December 2014, 19:40
The USSR State Symphony Orchestra, conductors E. Svetlanov, K. Ivanov / Myaskovsky. Selected Symphonies. CD2
Used drive : HL-DT-STDVD+-RW GU90N Adapter: 1 ID: 0
Read mode : SecureUtilize accurate stream : YesDefeat audio cache : YesMake use of C2 pointers : No
Read offset correction : 102Overread into Lead-In and Lead-Out : NoFill up missing offset samples with silence : YesDelete leading and trailing silent blocks : NoNull samples used in CRC calculations : YesUsed interface : Native Win32 interface for Win NT & 2000
Used output format : User Defined EncoderSelected bitrate : 1024 kBit/sQuality : HighAdd ID3 tag : NoCommand line compressor : C:\Program Files (x86)\FLAC\flac.exeAdditional command line options : -T "COMMENT=rip by el coronel" -8 -V %source%
TOC of the extracted CD
Track | Start | Length | Start sector | End sector --------------------------------------------------------- 1 | 0:00.00 | 15:45.22 | 0 | 70896 2 | 15:45.22 | 16:53.02 | 70897 | 146873 3 | 32:38.24 | 5:13.27 | 146874 | 170375 4 | 37:51.51 | 10:09.69 | 170376 | 216119 5 | 48:01.45 | 14:12.08 | 216120 | 280027
Range status and errors
Selected range
Filename F:\Music\Myaskovsky - Selected works (Melodiya)\CD2.wav
Peak level 98.8 % Extraction speed 4.6 X Range quality 100.0 % Test CRC B6EB412E Copy CRC B6EB412E Copy OK
No errors occurred
AccurateRip summary
Track 1 not present in databaseTrack 2 not present in databaseTrack 3 not present in databaseTrack 4 not present in databaseTrack 5 accurately ripped (confidence 1) [48EF17FF] (AR v2)
1 трек(и) скопированы точно 4 трек(и) не содержатся в базе AccurateRip
Some tracks could not be verified as accurate
End of status report
---- CUETools DB Plugin V2.1.4
[CTDB TOCID: N3Z5VUnt2GMhPfNg0nDnaifID_Q-] disk not present in databaseSubmit result: N3Z5VUnt2GMhPfNg0nDnaifID_Q- has been uploaded
==== Log checksum 2F36B26D585A3495CB9FC68D15EF17155B01308A99CCE516B251BBAE2A0EFE1F ====

Содержание индексной карты (.CUE)

REM GENRE ClassicalREM DATE 2014REM DISCID 490E9505REM COMMENT "ExactAudioCopy v1.0b4"PERFORMER "The USSR State Symphony Orchestra, conductors E. Svetlanov, K. Ivanov "TITLE "Myaskovsky. Selected Symphonies. CD2"FILE "CD2.flac" WAVE TRACK 01 AUDIO TITLE "Symphony No. 17 in G sharp minor: I. Lento. Allegro molto agitato" PERFORMER "The USSR State Symphony Orchestra, conductor E. Svetlanov" INDEX 01 00:00:00 TRACK 02 AUDIO TITLE "II. Lento assai. Andantino ma non troppo" PERFORMER "The USSR State Symphony Orchestra, conductor E. Svetlanov" INDEX 01 15:45:22 TRACK 03 AUDIO TITLE "III. Allegro poco vivace" PERFORMER "The USSR State Symphony Orchestra, conductor E. Svetlanov" INDEX 01 32:38:24 TRACK 04 AUDIO TITLE "IV. Andante. Allegro molto animato" PERFORMER "The USSR State Symphony Orchestra, conductor E. Svetlanov" INDEX 01 37:51:51 TRACK 05 AUDIO TITLE "Symphony No. 21 in F sharp minor" PERFORMER "The USSR State Symphony Orchestra, conductor K. Ivanov" INDEX 01 48:01:45

CD3

[01] Симфония №25: I. Adagio
[02] II. Moderato
[03] III. Allegro impetuoso
[04] Симфония №27: I. Adagio. Allegro molto animato
[05] II. Adagio
[06] III. Presto ma non troppo

Лог создания рипа

Exact Audio Copy V1.0 beta 3 from 29. August 2011
EAC extraction logfile from 27. November 2014, 20:27
The USSR State Symphony Orchestra, conductors E. Svetlanov, K. Ivanov / Myaskovsky- Selected Symphonies. CD3
Used drive : HL-DT-STDVD+-RW GU90N Adapter: 0 ID: 0
Read mode : SecureUtilize accurate stream : YesDefeat audio cache : YesMake use of C2 pointers : No
Read offset correction : 102Overread into Lead-In and Lead-Out : NoFill up missing offset samples with silence : YesDelete leading and trailing silent blocks : NoNull samples used in CRC calculations : YesUsed interface : Native Win32 interface for Win NT & 2000
Used output format : User Defined EncoderSelected bitrate : 1024 kBit/sQuality : HighAdd ID3 tag : NoCommand line compressor : C:\Program Files (x86)\FLAC\flac.exeAdditional command line options : -T "COMMENT=rip by el coronel" -8 -V %source%
TOC of the extracted CD
Track | Start | Length | Start sector | End sector --------------------------------------------------------- 1 | 0:00.00 | 16:02.09 | 0 | 72158 2 | 16:02.09 | 5:24.27 | 72159 | 96485 3 | 21:26.36 | 13:45.52 | 96486 | 158412 4 | 35:12.13 | 13:06.48 | 158413 | 217410 5 | 48:18.61 | 14:42.70 | 217411 | 283630 6 | 63:01.56 | 7:34.52 | 283631 | 317732
Range status and errors
Selected range
Filename F:\Music\Myaskovsky - Selected works (Melodiya)\CD3.wav
Peak level 99.0 % Extraction speed 4.8 X Range quality 100.0 % Test CRC C3DF58DD Copy CRC C3DF58DD Copy OK
No errors occurred
AccurateRip summary
Track 1 not present in databaseTrack 2 not present in databaseTrack 3 not present in databaseTrack 4 not present in databaseTrack 5 not present in databaseTrack 6 not present in database
None of the tracks are present in the AccurateRip database
End of status report
==== Log checksum DA4BAFE99F3954E5FF6C6D5A5B85CCE0545F357DC38EF549857C5E1AB9E2DADE ====

Содержание индексной карты (.CUE)

REM GENRE ClassicalREM DATE 2014REM DISCID 50108C06REM COMMENT "ExactAudioCopy v1.0b3"PERFORMER "The USSR State Symphony Orchestra, conductors E. Svetlanov, K. Ivanov"TITLE "Myaskovsky- Selected Symphonies. CD3"FILE "CD3.flac" WAVE TRACK 01 AUDIO TITLE "Symphony No. 25 in D flat major: I. Adagio" PERFORMER "The USSR State Symphony Orchestra, conductor E. Svetlanov" INDEX 01 00:00:00 TRACK 02 AUDIO TITLE "II. Moderato" PERFORMER "The USSR State Symphony Orchestra, conductor E. Svetlanov" INDEX 01 16:02:09 TRACK 03 AUDIO TITLE "III. Allegro impetuoso" PERFORMER "The USSR State Symphony Orchestra, conductor E. Svetlanov" INDEX 01 21:26:36 TRACK 04 AUDIO TITLE "Symphony No. 27 in C minor: I. Adagio. Allegro molto animato" PERFORMER "The USSR State Symphony Orchestra, conductor E. Svetlanov" INDEX 01 35:12:13 TRACK 05 AUDIO TITLE "II. Adagio" PERFORMER "The USSR State Symphony Orchestra, conductor E. Svetlanov" INDEX 01 48:18:61 TRACK 06 AUDIO TITLE "III. Presto ma non troppo" PERFORMER "The USSR State Symphony Orchestra, conductor E. Svetlanov" INDEX 01 63:01:56
Исполнители:
Государственный [Академический] Симфонический Оркестр СССР
Константин Иванов [Симфонии №№16 и 21]
Евгений Светланов-Доп. информация: Фирма "Мелодия" в очередной раз выпустила релиз, который трудно оценить однозначно.
Главное достоинство представленного здесь сборника симфоний Мясковского - это записи Константина Иванова. Доступные на виниле (и даже издававшиеся вместе) 16-ая и 21-ая выходят на CD впервые. При этом огорчает отсутствие 27-ой Симфонии в его исполнении (впрочем, существование этой фонограммы, насколько известно, остаётся под вопросом). Другая сторона комплекта - записи Светланова, издававшиеся несколько раз и большей частью полным комплектом, так что "избранность" тех или иных симфоний, вернее, то, как их выбирали, остаётся под вопросом. Но "Мелодия" смогла удивить и тут, сделав новый (или и вовсе первый в их истории) ремастеринг этих записей и в частности удалила известный всем любителям Мясковского "свист" из первой части 27-ой Симфонии - то, чего не сделали даже в прославленной Warner Classics.



Показать сообщения:    

Текущее время: 04-Дек 19:23

Часовой пояс: UTC + 3


Вы не можете начинать темы
Вы не можете отвечать на сообщения
Вы не можете редактировать свои сообщения
Вы не можете удалять свои сообщения
Вы не можете голосовать в опросах
Вы не можете прикреплять файлы к сообщениям
Вы не можете скачивать файлы