(Classical, ballet) Гийом Коннессон - Люцифер (Балет в двух актах) / Guillaume Connesson - Lucifer, Cello Concerto (Jerome Pernoo / Jean-Christophe Spinosi) - 2014, FLAC (image+.cue) lossless


 

[Цитировать]

Guillaume Connesson - Lucifer
Жанр: Classical
Страна-производитель диска: EU
Год издания диска: 2014
Издатель (лейбл): Universal Music Classics & Jazz France
Номер по каталогу: 481 1166
Дата записи: 31.V & 5.VI.2012
Аудиокодек: FLAC
Тип рипа: image+.cue
Битрейт аудио: lossless
Продолжительность: 1:05'24"
Источник: собственный рип
Наличие сканов в содержимом раздачи: да
Треклист:
Cello Concerto
01. I. Granitique
02. II. Vif
03. III. Paradisiaque
04. IV. Cadence
05. V. Orgiaque
Lucifer, ballet en deux actes sur en livret du compositeur
06. No.1: Le couronnement du Porteur de lumiere
07. No.2: Le voyage de Lucifer
08. No.3: La Rencontre
09. No.4: Le Proces
10. No.5: La Chute
11. No.6: L'Ailleurs
12. No.7: Epilogue
Исполнители:
Jerome Pernoo, cello
Orchestre Philharmonique de Monte-Carlo
Jean-Christophe Spinosi
-

Лог создания рипа

Exact Audio Copy V1.0 beta 1 from 15. November 2010
EAC extraction logfile from 10. February 2015, 19:39
Guillaume Connesson / Lucifer
Used drive : Optiarc DVD RW AD-7203A Adapter: 4 ID: 1
Read mode : SecureUtilize accurate stream : YesDefeat audio cache : YesMake use of C2 pointers : No
Read offset correction : 48Overread into Lead-In and Lead-Out : NoFill up missing offset samples with silence : YesDelete leading and trailing silent blocks : NoNull samples used in CRC calculations : YesUsed interface : Native Win32 interface for Win NT & 2000
Used output format : User Defined EncoderSelected bitrate : 128 kBit/sQuality : HighAdd ID3 tag : NoCommand line compressor : C:\Program Files\FLAC\flac.exeAdditional command line options : -T "COMMENT=Ripped by GFox" -8 -V %s
TOC of the extracted CD
Track | Start | Length | Start sector | End sector --------------------------------------------------------- 1 | 0:00.00 | 5:55.15 | 0 | 26639 2 | 5:55.15 | 4:23.09 | 26640 | 46373 3 | 10:18.24 | 8:29.24 | 46374 | 84572 4 | 18:47.48 | 4:06.53 | 84573 | 103075 5 | 22:54.26 | 4:56.48 | 103076 | 125323 6 | 27:50.74 | 6:18.55 | 125324 | 153728 7 | 34:09.54 | 3:38.06 | 153729 | 170084 8 | 37:47.60 | 8:16.59 | 170085 | 207343 9 | 46:04.44 | 4:36.08 | 207344 | 228051 10 | 50:40.52 | 1:46.51 | 228052 | 236052 11 | 52:27.28 | 8:39.07 | 236053 | 274984 12 | 61:06.35 | 4:17.42 | 274985 | 294301
Range status and errors
Selected range
Filename D:\EAC\Guillaume Connesson - Lucifer.wav
Peak level 97.0 % Extraction speed 0.2 X Range quality 99.9 % Test CRC F5BE5480 Copy CRC F5BE5480 Copy OK
No errors occurred
AccurateRip summary
Track 1 accurately ripped (confidence 1) [C3E1FD32]Track 2 accurately ripped (confidence 1) [501EA0BE]Track 3 accurately ripped (confidence 1) [E7C80C03]Track 4 accurately ripped (confidence 1) [D7DC4C19]Track 5 accurately ripped (confidence 1) [93B6AF8F]Track 6 accurately ripped (confidence 1) [193FB4A3]Track 7 accurately ripped (confidence 1) [133F35D6]Track 8 accurately ripped (confidence 1) [92CD9A39]Track 9 accurately ripped (confidence 1) [C0E741F3]Track 10 accurately ripped (confidence 1) [9EDC520A]Track 11 accurately ripped (confidence 1) [72D2D3FE]Track 12 accurately ripped (confidence 1) [37B8C817]
All tracks accurately ripped
End of status report
==== Log checksum 46712E0D9E6F00D37976ADFF9810F78D5BB625BA7CAF5E3AE957E47E8F2DB4F0 ====
-Доп. информация: Булезу вопреки - английский журнал Gramophone назвал Гийома Коннессона лидером "новой волны" французской тональной музыки. Истоки его работ лежат в таких на первый взгляд несовместимых явлениях, как минимализм Стива Райха и Джона Адамса и фанк Джеймса Брауна.-



Показать сообщения:    

Текущее время: 10-Дек 00:16

Часовой пояс: UTC + 3


Вы не можете начинать темы
Вы не можете отвечать на сообщения
Вы не можете редактировать свои сообщения
Вы не можете удалять свои сообщения
Вы не можете голосовать в опросах
Вы не можете прикреплять файлы к сообщениям
Вы не можете скачивать файлы