(Classical) Franz Liszt - Dante Symphony; A la Chapelle Sixtine - Netherlands Philharmonic Orchestra & Chorus, Hartmut Haenchen - 1998, FLAC (image+.cue) lossless


 

[Цитировать]

Franz Liszt - Dante Symphony; A la Chapelle Sixtine - Netherlands Philharmonic Orchestra & Chorus, Hartmut Haenchen
Жанр: Classical
Страна-производитель диска: Germany
Год издания диска: 1998
Издатель (лейбл): Capriccio
Номер по каталогу: 10736
Дата записи: 1995
Аудиокодек: FLAC
Тип рипа: image+.cue
Битрейт аудио: lossless
Продолжительность: 65:05
Источник: собственный рип
Наличие сканов в содержимом раздачи: да
Треклист:
Franz Liszt (1811-1886)
[1]-[3] Dante Symphony, R 426
[4] A la Chapelle Sixtine, R 445
Исполнители:
Netherlands Philharmonic Orchestra & Chorus
Hartmut Haenchen

Лог создания рипа

Exact Audio Copy V1.0 beta 3 from 29. August 2011
EAC extraction logfile from 6. November 2014, 2:33
Netherlands Philharmonic Orchestra & Chorus, Hartmut Haenchen / Liszt - Dante Symphony
Used drive : HL-DT-STDVDRAM GU70N Adapter: 0 ID: 0
Read mode : SecureUtilize accurate stream : YesDefeat audio cache : YesMake use of C2 pointers : No
Read offset correction : 48Overread into Lead-In and Lead-Out : NoFill up missing offset samples with silence : YesDelete leading and trailing silent blocks : NoNull samples used in CRC calculations : YesUsed interface : Native Win32 interface for Win NT & 2000
Used output format : User Defined EncoderSelected bitrate : 128 kBit/sQuality : HighAdd ID3 tag : NoCommand line compressor : C:\Program Files (x86)\Exact Audio Copy\Flac\flac.exeAdditional command line options : -V -8 -T "Date=%year%" -T "Genre=%genre%" %source%
TOC of the extracted CD
Track | Start | Length | Start sector | End sector --------------------------------------------------------- 1 | 0:00.37 | 20:54.00 | 37 | 94086 2 | 20:54.37 | 19:13.25 | 94087 | 180586 3 | 40:07.62 | 7:18.50 | 180587 | 213486 4 | 47:26.37 | 17:39.08 | 213487 | 292919
Range status and errors
Selected range
Filename C:\temp\Liszt - Dante Symphony - Netherlands PO & Chorus, Haenchen\Liszt - Dante Symphony.wav
Peak level 95.5 % Extraction speed 2.3 X Range quality 100.0 % Test CRC 46BB7B01 Copy CRC 46BB7B01 Copy OK
No errors occurred
AccurateRip summary
Track 1 cannot be verified as accurate (confidence 6) [64F8823D], AccurateRip returned [A7797959] (AR v2)Track 2 cannot be verified as accurate (confidence 6) [0DF023FA], AccurateRip returned [8CF9D50D] (AR v2)Track 3 cannot be verified as accurate (confidence 6) [B6632F53], AccurateRip returned [20EC6FF7] (AR v2)Track 4 cannot be verified as accurate (confidence 5) [357D546D], AccurateRip returned [F8B34918] (AR v2)
No tracks could be verified as accurateYou may have a different pressing from the one(s) in the database
End of status report
==== Log checksum FE53440EB59C39C8F45B6498F8D6C1CBB9985E82EABED2586FC0133584355335 ====



Показать сообщения:    

Текущее время: 08-Дек 14:52

Часовой пояс: UTC + 3


Вы не можете начинать темы
Вы не можете отвечать на сообщения
Вы не можете редактировать свои сообщения
Вы не можете удалять свои сообщения
Вы не можете голосовать в опросах
Вы не можете прикреплять файлы к сообщениям
Вы не можете скачивать файлы