(Classical, contemporary) Anders Hillborg - Eleven Gates; Dreaming River; King Tide; Exquisite Corpse - Royal Stockholm Philharmonic Orchestra, Sakari Oramo, Alan Gilbert, Esa-Pekka Salonen - 2011, FLAC (image+.cue) lossless


 

[Цитировать]

Anders Hillborg - Eleven Gates; Dreaming River; King Tide; Exquisite Corpse - Royal Stockholm Philharmonic Orchestra, Sakari Oramo, Alan Gilbert, Esa-Pekka Salonen
Жанр: Classical, contemporary
Страна-производитель диска: Sweden
Год издания диска: 2011
Издатель (лейбл): BIS
Номер по каталогу: BIS-SACD-1406
Дата записи: 2007, 2009, 2010
Аудиокодек: FLAC
Тип рипа: image+.cue
Битрейт аудио: lossless
Продолжительность: 67:27
Источник: собственный рип
Наличие сканов в содержимом раздачи: да
Треклист:
Anders Hillborg (b. 1954)
[1] King Tide (1999)
[2] Exquisite Corpse (2002)
[3] Dreaming River (1998)
[4]-[14] Eleven Gates (2005–06)
Исполнители:
Royal Stockholm Philharmonic Orchestra
Sakari Oramo
conductor ([1])
Alan Gilbert conductor ([2])
Esa-Pekka Salonen conductor ([3]–[14])

Лог создания рипа

Exact Audio Copy V1.0 beta 3 from 29. August 2011
EAC extraction logfile from 3. February 2015, 0:42
Royal Stockholm PO, Esa-Pekka Salonen / Hillborg - Eleven Gates
Used drive : HL-DT-STDVDRAM GU70N Adapter: 0 ID: 0
Read mode : SecureUtilize accurate stream : YesDefeat audio cache : YesMake use of C2 pointers : No
Read offset correction : 48Overread into Lead-In and Lead-Out : NoFill up missing offset samples with silence : YesDelete leading and trailing silent blocks : NoNull samples used in CRC calculations : YesUsed interface : Native Win32 interface for Win NT & 2000
Used output format : User Defined EncoderSelected bitrate : 128 kBit/sQuality : HighAdd ID3 tag : NoCommand line compressor : C:\Program Files (x86)\Exact Audio Copy\Flac\flac.exeAdditional command line options : -V -8 -T "Date=%year%" -T "Genre=%genre%" %source%
TOC of the extracted CD
Track | Start | Length | Start sector | End sector --------------------------------------------------------- 1 | 0:00.00 | 13:48.32 | 0 | 62131 2 | 13:48.32 | 13:41.06 | 62132 | 123712 3 | 27:29.38 | 20:28.00 | 123713 | 215812 4 | 47:57.38 | 1:52.34 | 215813 | 224246 5 | 49:49.72 | 2:09.01 | 224247 | 233922 6 | 51:58.73 | 0:24.03 | 233923 | 235725 7 | 52:23.01 | 0:56.74 | 235726 | 239999 8 | 53:20.00 | 0:44.24 | 240000 | 243323 9 | 54:04.24 | 3:56.22 | 243324 | 261045 10 | 58:00.46 | 2:46.31 | 261046 | 273526 11 | 60:47.02 | 0:50.10 | 273527 | 277286 12 | 61:37.12 | 0:44.45 | 277287 | 280631 13 | 62:21.57 | 1:45.16 | 280632 | 288522 14 | 64:06.73 | 3:20.54 | 288523 | 303576
Range status and errors
Selected range
Filename C:\temp\BIS-SACD-1406 - Hillborg - King Tide; Exquisite Corpse; Dreaming River; Eleven Gates\Hillborg - Eleven Gates.wav
Peak level 99.8 % Extraction speed 2.3 X Range quality 100.0 % Test CRC C1A278BB Copy CRC C1A278BB Copy OK
No errors occurred
AccurateRip summary
Track 1 accurately ripped (confidence 8) [44B5B23A] (AR v2)Track 2 accurately ripped (confidence 8) [47A99D29] (AR v2)Track 3 accurately ripped (confidence 8) [E643DCCA] (AR v2)Track 4 accurately ripped (confidence 8) [0D4D418D] (AR v2)Track 5 accurately ripped (confidence 8) [2F784A2C] (AR v2)Track 6 accurately ripped (confidence 8) [EDA36F29] (AR v2)Track 7 accurately ripped (confidence 8) [A1685871] (AR v2)Track 8 accurately ripped (confidence 8) [CFA32496] (AR v2)Track 9 accurately ripped (confidence 8) [C0DEB892] (AR v2)Track 10 accurately ripped (confidence 8) [CDA5A161] (AR v2)Track 11 accurately ripped (confidence 8) [4AAF7557] (AR v2)Track 12 accurately ripped (confidence 8) [F5DFCACF] (AR v2)Track 13 accurately ripped (confidence 8) [ECE9343D] (AR v2)Track 14 accurately ripped (confidence 8) [433627CE] (AR v2)
All tracks accurately ripped
End of status report
==== Log checksum 127FB9DFD56B73C1EF75045029325CC13C475ED6A841765C7A9F4B220CDB2379 ====



Показать сообщения:    

Текущее время: 05-Дек 15:32

Часовой пояс: UTC + 3


Вы не можете начинать темы
Вы не можете отвечать на сообщения
Вы не можете редактировать свои сообщения
Вы не можете удалять свои сообщения
Вы не можете голосовать в опросах
Вы не можете прикреплять файлы к сообщениям
Вы не можете скачивать файлы