(Classical) Johann Sebastian Bach - 4 Orchestral Suites - The Amsterdam Baroque Orchestra, Ton Koopman - 1997, FLAC (image+.cue) lossless


 

[Цитировать]

Johann Sebastian Bach - 4 Orchestral Suites - The Amsterdam Baroque Orchestra, Ton Koopman
Жанр: Classical
Страна-производитель диска: France
Год издания диска: 1997
Издатель (лейбл): Erato
Дата записи: 1997
Аудиокодек: FLAC
Тип рипа: image+.cue
Битрейт аудио: lossless
Продолжительность: 77:21
Источник: собственный рип
Наличие сканов в содержимом раздачи: да
Треклист:
Johann Sebastian Bach
[1]-[5] Orchestral Suite III in D major, BWV 1068
[6]-[12] Orchestral Suite I in C major, BWV 1066
[13]-[20] Orchestral Suite II in B minor, BWV 1067
[21]-[25] Orchestral Suite IV in D major, BWV 1069
Исполнители:
The Amsterdam Baroque Orchestra
Ton Koopman

Лог создания рипа

Exact Audio Copy V1.0 beta 3 from 29. August 2011
EAC extraction logfile from 7. November 2014, 21:48
The Amsterdam Baroque Orchestra, Ton Koopman / Bach - 4 Orchestral Suites
Used drive : HL-DT-STDVDRAM GU70N Adapter: 0 ID: 0
Read mode : SecureUtilize accurate stream : YesDefeat audio cache : YesMake use of C2 pointers : No
Read offset correction : 48Overread into Lead-In and Lead-Out : NoFill up missing offset samples with silence : YesDelete leading and trailing silent blocks : NoNull samples used in CRC calculations : YesUsed interface : Native Win32 interface for Win NT & 2000
Used output format : User Defined EncoderSelected bitrate : 128 kBit/sQuality : HighAdd ID3 tag : NoCommand line compressor : C:\Program Files (x86)\Exact Audio Copy\Flac\flac.exeAdditional command line options : -V -8 -T "Date=%year%" -T "Genre=%genre%" %source%
TOC of the extracted CD
Track | Start | Length | Start sector | End sector --------------------------------------------------------- 1 | 0:00.32 | 6:50.45 | 32 | 30826 2 | 6:51.02 | 5:34.15 | 30827 | 55891 3 | 12:25.17 | 3:23.43 | 55892 | 71159 4 | 15:48.60 | 1:12.67 | 71160 | 76626 5 | 17:01.52 | 2:50.00 | 76627 | 89376 6 | 19:51.52 | 6:10.33 | 89377 | 117159 7 | 26:02.10 | 2:16.47 | 117160 | 127406 8 | 28:18.57 | 2:33.65 | 127407 | 138946 9 | 30:52.47 | 1:24.23 | 138947 | 145269 10 | 32:16.70 | 2:57.07 | 145270 | 158551 11 | 35:14.02 | 2:17.33 | 158552 | 168859 12 | 37:31.35 | 2:33.62 | 168860 | 180396 13 | 40:05.22 | 6:32.23 | 180397 | 209819 14 | 46:37.45 | 1:45.00 | 209820 | 217694 15 | 48:22.45 | 2:42.20 | 217695 | 229864 16 | 51:04.65 | 1:38.50 | 229865 | 237264 17 | 52:43.40 | 1:11.57 | 237265 | 242646 18 | 53:55.22 | 1:56.23 | 242647 | 251369 19 | 55:51.45 | 1:13.72 | 251370 | 256916 20 | 57:05.42 | 1:30.55 | 256917 | 263721 21 | 58:36.22 | 7:48.45 | 263722 | 298866 22 | 66:24.67 | 2:28.70 | 298867 | 310036 23 | 68:53.62 | 2:03.08 | 310037 | 319269 24 | 70:56.70 | 3:49.00 | 319270 | 336444 25 | 74:45.70 | 2:35.42 | 336445 | 348111
Range status and errors
Selected range
Filename C:\temp\Bach - 4 Orchestral Suites - The Amsterdam Baroque Orchestra, Koopman\Bach - 4 Orchestral Suites.wav
Peak level 97.7 % Extraction speed 2.3 X Range quality 100.0 % Test CRC 55F6C51E Copy CRC 55F6C51E Copy OK
No errors occurred
AccurateRip summary
Track 1 accurately ripped (confidence 8) [74F6D98E] (AR v2)Track 2 accurately ripped (confidence 8) [D8DEB3D3] (AR v2)Track 3 accurately ripped (confidence 8) [DE26E25B] (AR v2)Track 4 accurately ripped (confidence 8) [FDB029D5] (AR v2)Track 5 accurately ripped (confidence 8) [AF23CF0B] (AR v2)Track 6 accurately ripped (confidence 8) [0FBA31A0] (AR v2)Track 7 accurately ripped (confidence 8) [FF18D44D] (AR v2)Track 8 accurately ripped (confidence 8) [0F020B71] (AR v2)Track 9 accurately ripped (confidence 8) [F832EA50] (AR v2)Track 10 accurately ripped (confidence 8) [E94630B6] (AR v2)Track 11 accurately ripped (confidence 8) [1650F3FF] (AR v2)Track 12 accurately ripped (confidence 8) [D129D11E] (AR v2)Track 13 accurately ripped (confidence 8) [D75BE090] (AR v2)Track 14 accurately ripped (confidence 8) [AB6BE5D0] (AR v2)Track 15 accurately ripped (confidence 8) [2022CF61] (AR v2)Track 16 accurately ripped (confidence 8) [F1468F81] (AR v2)Track 17 accurately ripped (confidence 8) [8E1EBB13] (AR v2)Track 18 accurately ripped (confidence 8) [D05F5118] (AR v2)Track 19 accurately ripped (confidence 8) [FFA28733] (AR v2)Track 20 accurately ripped (confidence 8) [12808CCA] (AR v2)Track 21 accurately ripped (confidence 8) [311C0F02] (AR v2)Track 22 accurately ripped (confidence 8) [04C657EA] (AR v2)Track 23 accurately ripped (confidence 8) [611A23FC] (AR v2)Track 24 accurately ripped (confidence 8) [A6CC49BB] (AR v2)Track 25 accurately ripped (confidence 8) [26ED3441] (AR v2)
All tracks accurately ripped
End of status report
==== Log checksum 1E8FE10D7B723588BD8FA1E7AA673A3DEA742FC9B628369D6161C92E2F70B182 ====



Показать сообщения:    

Текущее время: 09-Дек 01:03

Часовой пояс: UTC + 3


Вы не можете начинать темы
Вы не можете отвечать на сообщения
Вы не можете редактировать свои сообщения
Вы не можете удалять свои сообщения
Вы не можете голосовать в опросах
Вы не можете прикреплять файлы к сообщениям
Вы не можете скачивать файлы