(Classical) Мусоргский, Лядов - Картинки с выставки, Оркестровые работы (Эдуард Серов) - 2003, FLAC (image+.cue) lossless


 

[Цитировать]

Мусоргский, Лядов - Картинки с выставки, Оркестровые работы (Эдуард Серов)
Жанр: Classical
Страна-производитель диска: Российская Федерация
Год издания диска: 2003
Издатель (лейбл): RCD music
Номер по каталогу: RCD 30628
Дата записи: 2003
Аудиокодек: FLAC
Тип рипа: image+.cue
Битрейт аудио: lossless
Продолжительность: 59:49
Источник: собственный рип
сайт-источник/ник/другое: Из личной коллекции
Наличие сканов в содержимом раздачи: да
Треклист:
Мусоргский - Картинки с выставки
01 Прогулка. Гном.
02 Прогулка. Старый замок.
03 Прогулка. Тюильрийский сад.
04 Быдло.
05 Прогулка. Балет невылупившихся птенцов.
06 Два еврея, богатый и бедный.
07 Лимож. Рынок.
08 Катакомбы. С мертвыми на мертвом языке.
09 Избушка на курьих ножках. Богатырские ворота.
Лядов
10 Волшебное озеро.
11 Духовный стих.
12 Коляда-маляда.
13 Протяжная.
14 Шуточная (Я с комариком плясала).
15 Былина о птицах.
16 Колыбельная.
17 Плясовая.
18 Хороводная.
Исполнители:
Волгоградский академический симфонический оркестр,
Дирижер - Эдуард Серов

Лог создания рипа

Exact Audio Copy V1.0 beta 3 from 29. August 2011
EAC extraction logfile from 4. February 2015, 19:53
Eduard Serov - conductor / Mussorgsky - Pictures at an exhibition; Lyadov - Orchestral Works
Used drive : HL-DT-STDVDRAM GSA-T40N Adapter: 0 ID: 0
Read mode : SecureUtilize accurate stream : YesDefeat audio cache : YesMake use of C2 pointers : No
Read offset correction : 667Overread into Lead-In and Lead-Out : NoFill up missing offset samples with silence : YesDelete leading and trailing silent blocks : NoNull samples used in CRC calculations : YesUsed interface : Native Win32 interface for Win NT & 2000
Used output format : User Defined EncoderSelected bitrate : 32 kBit/sQuality : HighAdd ID3 tag : NoCommand line compressor : C:\Program Files\Exact Audio Copy\Flac\flac.exeAdditional command line options : -V -8 -T "Date=%year%" -T "Genre=%genre%" %source%
TOC of the extracted CD
Track | Start | Length | Start sector | End sector --------------------------------------------------------- 1 | 0:00.00 | 5:03.38 | 0 | 22762 2 | 5:03.38 | 5:37.63 | 22763 | 48100 3 | 10:41.26 | 2:01.47 | 48101 | 57222 4 | 12:42.73 | 2:49.66 | 57223 | 69963 5 | 15:32.64 | 2:15.05 | 69964 | 80093 6 | 17:47.69 | 2:34.58 | 80094 | 91701 7 | 20:22.52 | 3:43.05 | 91702 | 108431 8 | 24:05.57 | 2:17.26 | 108432 | 118732 9 | 26:23.08 | 9:49.41 | 118733 | 162948 10 | 36:12.49 | 9:07.17 | 162949 | 203990 11 | 45:19.66 | 2:11.17 | 203991 | 213832 12 | 47:31.08 | 1:22.48 | 213833 | 220030 13 | 48:53.56 | 3:30.60 | 220031 | 235840 14 | 52:24.41 | 1:02.17 | 235841 | 240507 15 | 53:26.58 | 1:30.68 | 240508 | 247325 16 | 54:57.51 | 2:30.12 | 247326 | 258587 17 | 57:27.63 | 0:47.60 | 258588 | 262172 18 | 58:15.48 | 1:33.65 | 262173 | 269212
Range status and errors
Selected range
Filename D:\Rip\Mussorgsky.Pictures_at_an_exhibition;Lyadov.Orchestral_Works-Eduard_Serov,Volgograd_SO,2003\Eduard Serov - conductor - Mussorgsky - Pictures at an exhibition; Lyadov - Orchestral Works.wav
Peak level 97.3 % Extraction speed 4.3 X Range quality 100.0 % Test CRC B5105DC7 Copy CRC B5105DC7 Copy OK
No errors occurred
AccurateRip summary
Track 1 accurately ripped (confidence 1) [0A8ADBEC] (AR v2)Track 2 accurately ripped (confidence 1) [9C53C0D3] (AR v2)Track 3 accurately ripped (confidence 1) [132A0A57] (AR v2)Track 4 accurately ripped (confidence 1) [3B7CFF95] (AR v2)Track 5 accurately ripped (confidence 1) [4C2CE6F9] (AR v2)Track 6 accurately ripped (confidence 1) [63A9A3E0] (AR v2)Track 7 accurately ripped (confidence 1) [8C2ECB96] (AR v2)Track 8 accurately ripped (confidence 1) [373FEA15] (AR v2)Track 9 accurately ripped (confidence 1) [F8BC0AA0] (AR v2)Track 10 accurately ripped (confidence 1) [3A2C3A73] (AR v2)Track 11 accurately ripped (confidence 1) [9E3CC758] (AR v2)Track 12 accurately ripped (confidence 1) [EDC73A0F] (AR v2)Track 13 accurately ripped (confidence 1) [92BB08D9] (AR v2)Track 14 accurately ripped (confidence 1) [95C81B88] (AR v2)Track 15 accurately ripped (confidence 1) [A010FDAB] (AR v2)Track 16 accurately ripped (confidence 1) [4D4009D1] (AR v2)Track 17 accurately ripped (confidence 1) [07ADC559] (AR v2)Track 18 accurately ripped (confidence 1) [5C7C5CE3] (AR v2)
All tracks accurately ripped
End of status report
==== Log checksum B803C74DC40A91F076B8562E29A67ADD4F58D157E0E25B94020D69CAEFDA5A53 ====

Содержание индексной карты (.CUE)

REM GENRE ClassicalREM DATE 2003REM DISCID 110E0512REM COMMENT "ExactAudioCopy v1.0b3"PERFORMER "Eduard Serov - conductor"TITLE "Mussorgsky - Pictures at an exhibition; Lyadov - Orchestral Works"FILE "Eduard Serov - conductor - Mussorgsky - Pictures at an exhibition; Lyadov - Orchestral Works.flac" WAVE TRACK 01 AUDIO TITLE "Прогулка. Гном" PERFORMER "Eduard Serov - conductor" INDEX 01 00:00:00 TRACK 02 AUDIO TITLE "Прогулка. Старый замок" PERFORMER "Eduard Serov - conductor" INDEX 01 05:03:38 TRACK 03 AUDIO TITLE "Прогулка. Тюильрийский сад" PERFORMER "Eduard Serov - conductor" INDEX 01 10:41:26 TRACK 04 AUDIO TITLE "Быдло" PERFORMER "Eduard Serov - conductor" INDEX 01 12:42:73 TRACK 05 AUDIO TITLE "Прогулка. Балет невылупившихся птенцов" PERFORMER "Eduard Serov - conductor" INDEX 01 15:32:64 TRACK 06 AUDIO TITLE "Два еврея, богатый и бедный" PERFORMER "Eduard Serov - conductor" INDEX 01 17:47:69 TRACK 07 AUDIO TITLE "Лимож. Рынок" PERFORMER "Eduard Serov - conductor" INDEX 01 20:22:52 TRACK 08 AUDIO TITLE "Катакомбы. С мертвыми на мертвом языке" PERFORMER "Eduard Serov - conductor" INDEX 01 24:05:57 TRACK 09 AUDIO TITLE "Избушка на курьих ножках. Богатырские ворота" PERFORMER "Eduard Serov - conductor" INDEX 01 26:23:08 TRACK 10 AUDIO TITLE "Волшебное озеро" PERFORMER "Eduard Serov - conductor" INDEX 00 36:08:49 INDEX 01 36:12:49 TRACK 11 AUDIO TITLE "Духовный стих" PERFORMER "Eduard Serov - conductor" INDEX 01 45:19:66 TRACK 12 AUDIO TITLE "Коляда-маледа" PERFORMER "Eduard Serov - conductor" INDEX 01 47:31:08 TRACK 13 AUDIO TITLE "Протяжная" PERFORMER "Eduard Serov - conductor" INDEX 01 48:53:56 TRACK 14 AUDIO TITLE "Шуточная (Я с комариком плясала)" PERFORMER "Eduard Serov - conductor" INDEX 01 52:24:41 TRACK 15 AUDIO TITLE "Былина о птицах" PERFORMER "Eduard Serov - conductor" INDEX 01 53:26:58 TRACK 16 AUDIO TITLE "Колыбельная" PERFORMER "Eduard Serov - conductor" INDEX 01 54:57:51 TRACK 17 AUDIO TITLE "Плясовая" PERFORMER "Eduard Serov - conductor" INDEX 01 57:27:63 TRACK 18 AUDIO TITLE "Хороводная" PERFORMER "Eduard Serov - conductor" INDEX 01 58:15:48
Доп. информация: Издание ГУК "Волгоградский центральный концертный зал"



Показать сообщения:    

Текущее время: 03-Дек 16:40

Часовой пояс: UTC + 3


Вы не можете начинать темы
Вы не можете отвечать на сообщения
Вы не можете редактировать свои сообщения
Вы не можете удалять свои сообщения
Вы не можете голосовать в опросах
Вы не можете прикреплять файлы к сообщениям
Вы не можете скачивать файлы