(Classical) Elgar - Falstaff, Symphonic Study • Romance for Bassoon and Orchestra • Incidental Music & Funeral March • Froissart, Concert Overture (Sheen, bassoon - BBC Symphony Orchestra, Davis) - 2005, APE (image+.cue) lossless


 

[Цитировать]

Edward Elgar - Falstaff • Froissart • Romance for Bassoon • Grania and Diarmid
Жанр: Classical
Страна-производитель диска: UK
Год издания диска: 2005
Издатель (лейбл): Apex / Warner Classics
Номер по каталогу: 2564 62200-2
Дата записи: 1998
Аудиокодек: APE
Тип рипа: image+.cue
Битрейт аудио: lossless
Продолжительность: 66'13
Источник: собственный рип
Наличие сканов в содержимом раздачи: да
Треклист:
Falstaff, symphonic study for orchestra in C minor, Op. 68
1. I Falstaff and Prince Henry
2. II The Scene is Eastcheap
3. III Falstaff
4. IV Falstaff's boastfulness
5. V Gadshill
6. VI Prince Henry arrives
7. VII The Skirmish
8. VIII Mistress Quickly's Theme
9. IX Falstaff's drunken speech...
10. X ...is met with laughter
11. XI Mistress Quickly's trill-and-snap
12. XII Falstaff's tries his speech again...
13. XIII ...But Falls Asleep, Snorning
14. XIV Interlude 1 - Falstaff's Dream
15. XV Falstaff is summoned
16. XVI Shallow's Orchard
17. XVII Atrumpet Call Leads To...
18. XVIII ...The Battle
19. XIX Interlude 2 - Falstaff's dream of England
20. XX Prince Henry becomes King
21. XXI Falstaff's ride to London
22. XXII The King's Procession
23. XXIII Prince Henry As He Was
24. XXIV The King Arrives
25. XXV The King rejects Falstaff
26. XXVI Falstaff's Entreaties
27. XXVII The Procession Moves On
28. XXVIII The Boar's Head
29. XXIX Falstaff's Death
30. Romance for Bassoon and Orchestra, Op. 6
31. Incidental Music & Funeral March from Grania and Diarmid Op.42
32. Froissart, Concert Overture Op.19
Исполнители:
Graham Sheen, bassoon
BBC Symphony Orchestra
Andrew Davis conductor

Лог создания рипа

Exact Audio Copy V1.0 beta 3 from 29. August 2011
EAC extraction logfile from 10. August 2014, 23:50
Elgar / Falstaff_Romance_Funeral March_Froissart, Davis
Used drive : TSSTcorpCDDVDW SE-208AB Adapter: 1 ID: 1
Read mode : SecureUtilize accurate stream : YesDefeat audio cache : YesMake use of C2 pointers : No
Read offset correction : 6Overread into Lead-In and Lead-Out : NoFill up missing offset samples with silence : YesDelete leading and trailing silent blocks : NoNull samples used in CRC calculations : YesUsed interface : Native Win32 interface for Win NT & 2000
Used output format : Monkey's Audio Lossless EncoderSelected bitrate : High Lossless CompressionQuality : HighAdd ID3 tag : NoCommand line compressor : C:\Program Files (x86)\Exact Audio Copy\MAC\MAC.exe
TOC of the extracted CD
Track | Start | Length | Start sector | End sector --------------------------------------------------------- 1 | 0:00.00 | 3:12.02 | 0 | 14401 2 | 3:12.02 | 0:26.53 | 14402 | 16404 3 | 3:38.55 | 1:13.15 | 16405 | 21894 4 | 4:51.70 | 2:11.05 | 21895 | 31724 5 | 7:03.00 | 0:37.45 | 31725 | 34544 6 | 7:40.45 | 0:17.65 | 34545 | 35884 7 | 7:58.35 | 2:14.17 | 35885 | 45951 8 | 10:12.52 | 2:01.70 | 45952 | 55096 9 | 12:14.47 | 0:35.48 | 55097 | 57769 10 | 12:50.20 | 0:52.42 | 57770 | 61711 11 | 13:42.62 | 0:40.43 | 61712 | 64754 12 | 14:23.30 | 0:41.65 | 64755 | 67894 13 | 15:05.20 | 1:18.70 | 67895 | 73814 14 | 16:24.15 | 2:28.25 | 73815 | 84939 15 | 18:52.40 | 0:44.65 | 84940 | 88304 16 | 19:37.30 | 0:46.70 | 88305 | 91824 17 | 20:24.25 | 1:18.30 | 91825 | 97704 18 | 21:42.55 | 1:21.37 | 97705 | 103816 19 | 23:04.17 | 1:41.15 | 103817 | 111406 20 | 24:45.32 | 0:18.18 | 111407 | 112774 21 | 25:03.50 | 0:47.20 | 112775 | 116319 22 | 25:50.70 | 1:35.55 | 116320 | 123499 23 | 27:26.50 | 0:49.62 | 123500 | 127236 24 | 28:16.37 | 1:02.35 | 127237 | 131921 25 | 29:18.72 | 0:06.25 | 131922 | 132396 26 | 29:25.22 | 0:46.20 | 132397 | 135866 27 | 30:11.42 | 1:27.60 | 135867 | 142451 28 | 31:39.27 | 0:39.10 | 142452 | 145386 29 | 32:18.37 | 3:11.55 | 145387 | 159766 30 | 35:30.17 | 5:47.20 | 159767 | 185811 31 | 41:17.37 | 10:00.50 | 185812 | 230861 32 | 51:18.12 | 14:54.63 | 230862 | 297974
Range status and errors
Selected range
Filename D:\EAC\Elgar - Falstaff_Romance_Funeral March_Froissart, Davis.wav
Peak level 79.4 % Extraction speed 2.2 X Range quality 100.0 % Test CRC 8F085EB9 Copy CRC 8F085EB9 Copy OK
No errors occurred
AccurateRip summary
Track 1 accurately ripped (confidence 5) [AC49339F] (AR v2)Track 2 accurately ripped (confidence 5) [544A2A9A] (AR v2)Track 3 accurately ripped (confidence 5) [865F8E44] (AR v2)Track 4 accurately ripped (confidence 5) [A278928F] (AR v2)Track 5 accurately ripped (confidence 5) [71F80CF9] (AR v2)Track 6 accurately ripped (confidence 5) [30F0083B] (AR v2)Track 7 accurately ripped (confidence 5) [3EC74698] (AR v2)Track 8 accurately ripped (confidence 5) [9CC87B77] (AR v2)Track 9 accurately ripped (confidence 5) [EE4E340A] (AR v2)Track 10 accurately ripped (confidence 5) [CC8229DC] (AR v2)Track 11 accurately ripped (confidence 5) [6AF92EAF] (AR v2)Track 12 accurately ripped (confidence 5) [966F1CC1] (AR v2)Track 13 accurately ripped (confidence 5) [BA3B7EE2] (AR v2)Track 14 accurately ripped (confidence 5) [EA5F48E0] (AR v2)Track 15 accurately ripped (confidence 5) [12D0894F] (AR v2)Track 16 accurately ripped (confidence 5) [16418BD0] (AR v2)Track 17 accurately ripped (confidence 5) [D1DCDE9C] (AR v2)Track 18 accurately ripped (confidence 5) [C170D4E3] (AR v2)Track 19 accurately ripped (confidence 5) [0B8581BC] (AR v2)Track 20 accurately ripped (confidence 5) [D5C42775] (AR v2)Track 21 accurately ripped (confidence 5) [325E0BF8] (AR v2)Track 22 accurately ripped (confidence 5) [30810D41] (AR v2)Track 23 accurately ripped (confidence 5) [27742A96] (AR v2)Track 24 accurately ripped (confidence 5) [DEC9C6B8] (AR v2)Track 25 accurately ripped (confidence 5) [138D2BFC] (AR v2)Track 26 accurately ripped (confidence 5) [F53DC3CF] (AR v2)Track 27 accurately ripped (confidence 5) [8D4FBA97] (AR v2)Track 28 accurately ripped (confidence 5) [98721D18] (AR v2)Track 29 accurately ripped (confidence 5) [A0574B54] (AR v2)Track 30 accurately ripped (confidence 5) [99AA0FE3] (AR v2)Track 31 accurately ripped (confidence 5) [F66AAC2F] (AR v2)Track 32 accurately ripped (confidence 5) [ADFCE3E5] (AR v2)
All tracks accurately ripped
End of status report
---- CUETools DB Plugin V2.1.3
[CTDB TOCID: e_xxcIZm6T1kK3ZUxa_RPar_TzQ-] found, Submit result: e_xxcIZm6T1kK3ZUxa_RPar_TzQ- has been confirmed[831073d0] (1/1) Accurately ripped
==== Log checksum AA57C0B8AE20B8CD53A80C250850005AE0E75F7FE27A2E5B1D339F8464264654 ====

Содержание индексной карты (.CUE)

REM GENRE "Chamber Music"REM DATE 1998REM DISCID C20F8520REM COMMENT "ExactAudioCopy v1.0b3"CATALOG 0825646220021PERFORMER "Elgar"TITLE "Falstaff_Romance_Funeral March_Froissart, Davis"FILE "Elgar - Falstaff_Romance_Funeral March_Froissart, Davis.ape" WAVE TRACK 01 AUDIO TITLE "I: Falstaff and Prince Henry" PERFORMER "Elgar" ISRC DEA809548701 INDEX 01 00:00:00 TRACK 02 AUDIO TITLE "II: Eastcheep 1" PERFORMER "Elgar" ISRC DEA809548702 INDEX 00 03:08:38 INDEX 01 03:12:02 TRACK 03 AUDIO TITLE "II: Eastcheap 2" PERFORMER "Elgar" ISRC DEA809548703 INDEX 00 03:35:01 INDEX 01 03:38:55 TRACK 04 AUDIO TITLE "II: Eastcheap 3" PERFORMER "Elgar" ISRC DEA809548704 INDEX 00 04:48:16 INDEX 01 04:51:70 TRACK 05 AUDIO TITLE "II: Gadshill 1" PERFORMER "Elgar" ISRC DEA809548705 INDEX 00 06:59:21 INDEX 01 07:03:00 TRACK 06 AUDIO TITLE "II: Gadshill 2" PERFORMER "Elgar" ISRC DEA809548706 INDEX 00 07:36:66 INDEX 01 07:40:45 TRACK 07 AUDIO TITLE "II: Gadshill 3" PERFORMER "Elgar" ISRC DEA809548707 INDEX 00 07:54:56 INDEX 01 07:58:35 TRACK 08 AUDIO TITLE "II: Boar's Head, scherzo 1" PERFORMER "Elgar" ISRC DEA809548708 INDEX 00 10:08:73 INDEX 01 10:12:52 TRACK 09 AUDIO TITLE "II: Boar's Head, trio bassoon" PERFORMER "Elgar" ISRC DEA809548709 INDEX 00 12:10:68 INDEX 01 12:14:47 TRACK 10 AUDIO TITLE "II: Boar's Head, trio laughter" PERFORMER "Elgar" ISRC DEA809548710 INDEX 00 12:46:41 INDEX 01 12:50:20 TRACK 11 AUDIO TITLE "II: Boar's Head, scherzo 2" PERFORMER "Elgar" ISRC DEA809548711 INDEX 00 13:39:09 INDEX 01 13:42:62 TRACK 12 AUDIO TITLE "II: Revelry" PERFORMER "Elgar" ISRC DEA809548712 INDEX 00 14:19:51 INDEX 01 14:23:30 TRACK 13 AUDIO TITLE "II: Sleep" PERFORMER "Elgar" ISRC DEA809548713 INDEX 00 15:01:41 INDEX 01 15:05:20 TRACK 14 AUDIO TITLE "Dream Interlude" PERFORMER "Elgar" ISRC DEA809548714 INDEX 00 16:20:36 INDEX 01 16:24:15 TRACK 15 AUDIO TITLE "III: Falstaff's March" PERFORMER "Elgar" ISRC DEA809548715 INDEX 00 18:48:61 INDEX 01 18:52:40 TRACK 16 AUDIO TITLE "III: The Battle of Gaultree Forest" PERFORMER "Elgar" ISRC DEA809548716 INDEX 00 19:33:52 INDEX 01 19:37:30 TRACK 17 AUDIO TITLE "III: The Return through Gloucestershire" PERFORMER "Elgar" ISRC DEA809548717 INDEX 00 20:20:46 INDEX 01 20:24:25 TRACK 18 AUDIO TITLE "Interlude: Gloucestershite, Shallow's Orchard" PERFORMER "Elgar" ISRC DEA809548718 INDEX 00 21:39:01 INDEX 01 21:42:55 TRACK 19 AUDIO TITLE "The New King" PERFORMER "Elgar" ISRC DEA809548718 INDEX 00 23:00:38 INDEX 01 23:04:17 TRACK 20 AUDIO TITLE "The Hurried Ride to London" PERFORMER "Elgar" ISRC DEA809548720 INDEX 00 24:41:53 INDEX 01 24:45:32 TRACK 21 AUDIO TITLE "IV: King Henry V's Progress" PERFORMER "Elgar" ISRC DEA809548721 INDEX 00 24:59:71 INDEX 01 25:03:50 TRACK 22 AUDIO TITLE "IV: King Henry V's Progress 2" PERFORMER "Elgar" ISRC DEA809548722 INDEX 00 25:47:16 INDEX 01 25:50:70 TRACK 23 AUDIO TITLE "IV: King Henry V's Progress 3" PERFORMER "Elgar" ISRC DEA809548723 INDEX 00 27:22:71 INDEX 01 27:26:50 TRACK 24 AUDIO TITLE "IV: The Repudiation of Falstaff 1" PERFORMER "Elgar" ISRC DEA809548724 INDEX 00 28:12:58 INDEX 01 28:16:37 TRACK 25 AUDIO TITLE "IV: The Repudiation of Falstaff 2" PERFORMER "Elgar" ISRC DEA809548725 INDEX 00 29:15:18 INDEX 01 29:18:72 TRACK 26 AUDIO TITLE "IV: The Repudiation of Falstaff 3" PERFORMER "Elgar" ISRC DEA809548726 INDEX 00 29:21:43 INDEX 01 29:25:22 TRACK 27 AUDIO TITLE "IV: The Repudiation of Falstaff 4" PERFORMER "Elgar" ISRC DEA809548727 INDEX 00 30:07:63 INDEX 01 30:11:42 TRACK 28 AUDIO TITLE "IV: His Death 1" PERFORMER "Elgar" ISRC DEA809548728 INDEX 00 31:35:48 INDEX 01 31:39:27 TRACK 29 AUDIO TITLE "IV: His Death 2" PERFORMER "Elgar" ISRC DEA809548729 INDEX 00 32:14:58 INDEX 01 32:18:37 TRACK 30 AUDIO TITLE "Romance for Bassoon and Orchestra, op 62" PERFORMER "Elgar" ISRC DEA809548800 INDEX 00 35:19:21 INDEX 01 35:30:17 TRACK 31 AUDIO TITLE "Incidental Music and Funeral March from Grania and Diarmind, op 42" PERFORMER "Elgar" ISRC DEA809548900 INDEX 00 41:08:61 INDEX 01 41:17:37 TRACK 32 AUDIO TITLE "Froissart, Concert Overture, op 19" PERFORMER "Elgar" ISRC DEA809549000 INDEX 00 51:09:56 INDEX 01 51:18:12



Показать сообщения:    

Текущее время: 04-Дек 11:12

Часовой пояс: UTC + 3


Вы не можете начинать темы
Вы не можете отвечать на сообщения
Вы не можете редактировать свои сообщения
Вы не можете удалять свои сообщения
Вы не можете голосовать в опросах
Вы не можете прикреплять файлы к сообщениям
Вы не можете скачивать файлы