(Orchestral) Ууно Клами / Uuno Klami - Meet the Composer: Orchestral works & Concertos (L.Segerstam, Arto Noras, J.Panula, Ilkka Talvi, Finnish RSO, Helsinki PO, Tapiola Sinfonietta) 2 CD - 1997, APE (tracks+.cue) lossless


 

[Цитировать]

Uuno Klami - Meet the Composer: Orchestral works & Concertos
Жанр: Orchestral
Страна-производитель диска: Finland
Год издания диска: 1997
Издатель (лейбл): Finlandia/Warner
Номер по каталогу: 4509-99968-2
Дата записи: 1973-90
Аудиокодек: APE
Тип рипа: tracks+.cue
Битрейт аудио: lossless
Продолжительность: 63:17+69:40
Источник: скачано с
Наличие сканов в содержимом раздачи: да
Треклист:
Uuno Klami (1900-1961)
CD 1
01 All'ouverture, op.43 (1951) (8:45)
02-07 Sea Pictures (1930-32) 22'38
I. The Foggy Morning (3:21)
II. Captain Scrapuchinat (2:57)
III. The Deserted Three-Master (5:13)
IV. Song of the Watch (Nocturne) (3:08)
V. Scene de Ballet (1:29)
VI. 3 Bf (6:28)
08-13 Kalevala suite, op.23 (1929-33, rev.1943) 31'51
I. The Creation of the Earth (7:00)
II. The Sprout of Spring (4:38)
III. Terhenniemi (6:39)
IV. Cradle Song for Lemminkainen (6:30)
V. Forging of the Sampo (7:04)
CD 2
01 Cheremissian Fantasy, for cello and orchestra, op.19 (1931) (11:39)
02-04 Violin concerto (1942, rev. 1954) 27'27
I. Allegro molto moderato (11:18)
II. Adagio ma non troppo (8:54)
III. Allegro giocoso (7:25)
05-07 Concerto № 2 for piano and string orchestra, op.41 (1950) 30'22
I. Andante risoluto (12:39)
II. Larghetto (11:32)
III. Allegro scherzando (6:10)
Исполнители:
Finnish Radio Symphony Orchestra/ Leif Segerstam, cond. (CD1)
Arto Noras, cello/Helsinki Philharmonic Orchestra/ Jorma Panula, cond. (CD2: 1)
Ilkka Talvi, violin/Kouvola Sity Orchestra/Eero Bister, cond. (CD2: 2-4)
Juhani Lagerspetz, piano/Tapiola Sinfonietta/Juhani Lamminmaki, cond. (CD2: 5-7)
Recorded in 1987, 1973, 1983, 1990

Лог создания рипа

CD 1
EAC extraction logfile from 1. August 2007, 22:45 for CDUuno Klami / Meet the Composer, Disc 1
Used drive : PIONEER DVD RW DVR-107D Adapter: 1 ID: 0Read mode : Secure with NO C2, accurate stream, disable cacheRead offset correction : 48Overread into Lead-In and Lead-Out : No
Used output format : D:\Program files\Exact Audio Copy\wapet.exe (User Defined Encoder) 32 kBit/s Additional command line options : %d -t "Artist=%a" -t "Title=%t" -t "Album=%g" -t "Year=%y" -t "Track=%n" -t "Genre=%m" mac.exe %s %d -c3000 -v
Other options : Fill up missing offset samples with silence : Yes Delete leading and trailing silent blocks : No Installed external ASPI interface
Track 1 Filename G:\Upload\Voorbereiding\Meet_the_composer_Klami\Disc1\01 Uuno Klami All'ouverture, op.43.wav
Pre-gap length 0:00:02.00
Peak level 97.5 % Track quality 100.0 % Test CRC 7F72987F Copy CRC 7F72987F Copy OK
Track 2 Filename G:\Upload\Voorbereiding\Meet_the_composer_Klami\Disc1\02 Uuno Klami Sea Pictures- The Foggy Morning.wav
Pre-gap length 0:00:11.24
Peak level 18.4 % Track quality 99.9 % Test CRC 01E1E4E1 Copy CRC 01E1E4E1 Copy OK
Track 3 Filename G:\Upload\Voorbereiding\Meet_the_composer_Klami\Disc1\03 Uuno Klami Sea Pictures- Captain Scrapuchinat.wav
Peak level 95.7 % Track quality 100.0 % Test CRC 08507072 Copy CRC 08507072 Copy OK
Track 4 Filename G:\Upload\Voorbereiding\Meet_the_composer_Klami\Disc1\04 Uuno Klami Sea Pictures- The Deserted Three-Master.wav
Peak level 35.0 % Track quality 100.0 % Test CRC 155E1C22 Copy CRC 155E1C22 Copy OK
Track 5 Filename G:\Upload\Voorbereiding\Meet_the_composer_Klami\Disc1\05 Uuno Klami Sea Pictures- Song of the Watch (Nocturne).wav
Peak level 16.2 % Track quality 100.0 % Test CRC 4E62DF38 Copy CRC 4E62DF38 Copy OK
Track 6 Filename G:\Upload\Voorbereiding\Meet_the_composer_Klami\Disc1\06 Uuno Klami Sea Pictures- Scene de Ballet.wav
Peak level 9.9 % Track quality 100.0 % Test CRC BABBFBD7 Copy CRC BABBFBD7 Copy OK
Track 7 Filename G:\Upload\Voorbereiding\Meet_the_composer_Klami\Disc1\07 Uuno Klami Sea Pictures- 3 Bf.wav
Peak level 85.7 % Track quality 100.0 % Test CRC DE6E61AA Copy CRC DE6E61AA Copy OK
Track 8 Filename G:\Upload\Voorbereiding\Meet_the_composer_Klami\Disc1\08 Uuno Klami Kalevala suite, op.23- The Creation of the Earth.wav
Pre-gap length 0:00:11.36
Peak level 81.8 % Track quality 100.0 % Test CRC 51DE6E0D Copy CRC 51DE6E0D Copy OK
Track 9 Filename G:\Upload\Voorbereiding\Meet_the_composer_Klami\Disc1\09 Uuno Klami Kalevala suite, op.23- The Sprout of Spring.wav
Peak level 39.2 % Track quality 100.0 % Test CRC BEE56B45 Copy CRC BEE56B45 Copy OK
Track 10 Filename G:\Upload\Voorbereiding\Meet_the_composer_Klami\Disc1\10 Uuno Klami Kalevala suite, op.23- Terhenniemi.wav
Peak level 78.9 % Track quality 99.9 % Test CRC 2C78C771 Copy CRC 2C78C771 Copy OK
Track 11 Filename G:\Upload\Voorbereiding\Meet_the_composer_Klami\Disc1\11 Uuno Klami Kalevala suite, op.23- Cradle Song for Lemminkainen.wav
Peak level 26.1 % Track quality 100.0 % Test CRC 79BFC5D4 Copy CRC 79BFC5D4 Copy OK
Track 12 Filename G:\Upload\Voorbereiding\Meet_the_composer_Klami\Disc1\12 Uuno Klami Kalevala suite, op.23- Forging of the Sampo.wav
Peak level 92.2 % Track quality 100.0 % Test CRC 3DB72ADE Copy CRC 3DB72ADE Copy OK
No errors occured
End of status report
CD 2
EAC extraction logfile from 1. August 2007, 23:05 for CDUuno Klami / Meet the Composer, Disc 2
Used drive : PIONEER DVD RW DVR-107D Adapter: 1 ID: 0Read mode : Secure with NO C2, accurate stream, disable cacheRead offset correction : 48Overread into Lead-In and Lead-Out : No
Used output format : D:\Program files\Exact Audio Copy\wapet.exe (User Defined Encoder) 32 kBit/s Additional command line options : %d -t "Artist=%a" -t "Title=%t" -t "Album=%g" -t "Year=%y" -t "Track=%n" -t "Genre=%m" mac.exe %s %d -c3000 -v
Other options : Fill up missing offset samples with silence : Yes Delete leading and trailing silent blocks : No Installed external ASPI interface
Track 1 Filename G:\Upload\Voorbereiding\Meet_the_composer_Klami\Disc2\01 Uuno Klami Cheremissian Fantasy, op.19, for cello and orchestra.wav
Pre-gap length 0:00:02.00
Peak level 94.9 % Track quality 100.0 % Test CRC 22786E96 Copy CRC 22786E96 Copy OK
Track 2 Filename G:\Upload\Voorbereiding\Meet_the_composer_Klami\Disc2\02 Uuno Klami Violin concerto- Allegro molto moderato.wav
Pre-gap length 0:00:11.60
Peak level 74.9 % Track quality 100.0 % Test CRC 1DA44B51 Copy CRC 1DA44B51 Copy OK
Track 3 Filename G:\Upload\Voorbereiding\Meet_the_composer_Klami\Disc2\03 Uuno Klami Violin concerto- Adagio ma non troppo.wav
Peak level 46.0 % Track quality 100.0 % Test CRC 2BD988AA Copy CRC 2BD988AA Copy OK
Track 4 Filename G:\Upload\Voorbereiding\Meet_the_composer_Klami\Disc2\04 Uuno Klami Violin concerto- Allegro giocoso.wav
Peak level 71.8 % Track quality 100.0 % Test CRC 02CF7226 Copy CRC 02CF7226 Copy OK
Track 5 Filename G:\Upload\Voorbereiding\Meet_the_composer_Klami\Disc2\05 Uuno Klami Concerto no.2 for piano and string orchestra, op.41- Andante risoluto.wav
Pre-gap length 0:00:11.60
Peak level 88.1 % Track quality 100.0 % Test CRC ADA0516F Copy CRC ADA0516F Copy OK
Track 6 Filename G:\Upload\Voorbereiding\Meet_the_composer_Klami\Disc2\06 Uuno Klami Concerto no.2 for piano and string orchestra, op.41- Larghetto.wav
Peak level 48.8 % Track quality 100.0 % Test CRC 3D72F96E Copy CRC 3D72F96E Copy OK
Track 7 Filename G:\Upload\Voorbereiding\Meet_the_composer_Klami\Disc2\07 Uuno Klami Concerto no.2 for piano and string orchestra, op.41- Allegro scherzando.wav
Peak level 75.3 % Track quality 99.9 % Test CRC 82AF5068 Copy CRC 82AF5068 Copy OK
No errors occured
End of status report

Содержание индексной карты (.CUE)

CD 1
REM DISCID BE0ED50CREM COMMENT "ExactAudioCopy v0.95b3"PERFORMER "Uuno Klami"TITLE "Meet the Composer, Disc 1"FILE "01 Uuno Klami All'ouverture, op.43.wav" WAVE TRACK 01 AUDIO TITLE "All'ouverture, op.43" PERFORMER "Uuno Klami" INDEX 01 00:00:00 TRACK 02 AUDIO TITLE "Sea Pictures: The Foggy Morning" PERFORMER "Uuno Klami" INDEX 00 08:33:67FILE "02 Uuno Klami Sea Pictures- The Foggy Morning.wav" WAVE INDEX 01 00:00:00FILE "03 Uuno Klami Sea Pictures- Captain Scrapuchinat.wav" WAVE TRACK 03 AUDIO TITLE "Sea Pictures: Captain Scrapuchinat" PERFORMER "Uuno Klami" INDEX 01 00:00:00FILE "04 Uuno Klami Sea Pictures- The Deserted Three-Master.wav" WAVE TRACK 04 AUDIO TITLE "Sea Pictures: The Deserted Three-Master" PERFORMER "Uuno Klami" INDEX 01 00:00:00FILE "05 Uuno Klami Sea Pictures- Song of the Watch (Nocturne).wav" WAVE TRACK 05 AUDIO TITLE "Sea Pictures: Song of the Watch (Nocturne)" PERFORMER "Uuno Klami" INDEX 01 00:00:00FILE "06 Uuno Klami Sea Pictures- Scene de Ballet.wav" WAVE TRACK 06 AUDIO TITLE "Sea Pictures: Scene de Ballet" PERFORMER "Uuno Klami" INDEX 01 00:00:00FILE "07 Uuno Klami Sea Pictures- 3 Bf.wav" WAVE TRACK 07 AUDIO TITLE "Sea Pictures: 3 Bf" PERFORMER "Uuno Klami" INDEX 01 00:00:00 TRACK 08 AUDIO TITLE "Kalevala suite, op.23: The Creation of the Earth" PERFORMER "Uuno Klami" INDEX 00 06:17:08FILE "08 Uuno Klami Kalevala suite, op.23- The Creation of the Earth.wav" WAVE INDEX 01 00:00:00FILE "09 Uuno Klami Kalevala suite, op.23- The Sprout of Spring.wav" WAVE TRACK 09 AUDIO TITLE "Kalevala suite, op.23: The Sprout of Spring" PERFORMER "Uuno Klami" INDEX 01 00:00:00FILE "10 Uuno Klami Kalevala suite, op.23- Terhenniemi.wav" WAVE TRACK 10 AUDIO TITLE "Kalevala suite, op.23: Terhenniemi" PERFORMER "Uuno Klami" INDEX 01 00:00:00FILE "11 Uuno Klami Kalevala suite, op.23- Cradle Song for Lemminkainen.wav" WAVE TRACK 11 AUDIO TITLE "Kalevala suite, op.23: Cradle Song for Lemminkainen" PERFORMER "Uuno Klami" INDEX 01 00:00:00FILE "12 Uuno Klami Kalevala suite, op.23- Forging of the Sampo.wav" WAVE TRACK 12 AUDIO TITLE "Kalevala suite, op.23: Forging of the Sampo" PERFORMER "Uuno Klami" INDEX 01 00:00:00
CD 2
REM DISCID 4C105407REM COMMENT "ExactAudioCopy v0.95b3"PERFORMER "Uuno Klami"TITLE "Meet the Composer, Disc 2"FILE "01 Uuno Klami Cheremissian Fantasy, op.19, for cello and orchestra.wav" WAVE TRACK 01 AUDIO TITLE "Cheremissian Fantasy, op.19, for cello and orchestra" PERFORMER "Uuno Klami" INDEX 01 00:00:00 TRACK 02 AUDIO TITLE "Violin concerto: Allegro molto moderato" PERFORMER "Uuno Klami" INDEX 00 11:28:00FILE "02 Uuno Klami Violin concerto- Allegro molto moderato.wav" WAVE INDEX 01 00:00:00FILE "03 Uuno Klami Violin concerto- Adagio ma non troppo.wav" WAVE TRACK 03 AUDIO TITLE "Violin concerto: Adagio ma non troppo" PERFORMER "Uuno Klami" INDEX 01 00:00:00FILE "04 Uuno Klami Violin concerto- Allegro giocoso.wav" WAVE TRACK 04 AUDIO TITLE "Violin concerto: Allegro giocoso" PERFORMER "Uuno Klami" INDEX 01 00:00:00 TRACK 05 AUDIO TITLE "Concerto no.2 for piano and string orchestra, op.41: Andante risoluto" PERFORMER "Uuno Klami" INDEX 00 07:14:20FILE "05 Uuno Klami Concerto no.2 for piano and string orchestra, op.41- Andante risoluto.wav" WAVE INDEX 01 00:00:00FILE "06 Uuno Klami Concerto no.2 for piano and string orchestra, op.41- Larghetto.wav" WAVE TRACK 06 AUDIO TITLE "Concerto no.2 for piano and string orchestra, op.41: Larghetto" PERFORMER "Uuno Klami" INDEX 01 00:00:00FILE "07 Uuno Klami Concerto no.2 for piano and string orchestra, op.41- Allegro scherzando.wav" WAVE TRACK 07 AUDIO TITLE "Concerto no.2 for piano and string orchestra, op.41: Allegro scherzando" PERFORMER "Uuno Klami" INDEX 01 00:00:00
Доп. информация: Ууно Kлами - один из самых успешных и оригинальных оркестровых композиторов в истории финской музыки. Человек довольно необычный. Став знаменитым ещё в молодости, совершив прорыв в то время, когда Сибелиус просто перестал сочинять, он был непременным участником пяти войн (двух карельских, гражданской, Зимней и Второй мировой), смело ходил под парусом, и даже умер в море управляя любимой шхуной - просто остановилось сердце. Окончив Хельсинский музыкальный институт в 1924г. (класс Эркки Мелартина) он отправился в Париж где учился у Равеля, слушал других своих кумиров - Стравинского, Прокофьева и де Фалью. Вернувшись в Финляндию, он привез с собой импрессионистский фортепианный концерт "Ночь на Монмартре" (1925), неоклассические "Сценки из кукольного театра" (1925) и неофольклорную "Карельскую рапсодию" (1927). Тяга к повышенной красочности импрессионизма и ироничной неоклассике, а также стремление исследовать архаичные фольклорные миры и сформировали его стиль. Первый же концерт в 1928 принёс ему славу на родине. После создания новой антиромантической "Калевалы", отражающей варварскую первозданность и стихийные силы природы, его слава только упрочилась. Как оркестровый виртуоз он не имел аналогов в Финляндии. В 1953 году аудитория Хельсинкского филармонического оркестра назначила Kлами своим любимым финским композитором после Сибелиуса. В 1994 году опрос Финского радио показал, что Kлами наиболее часто желаемый гость концертных программ.

О диске

Инициатором создания одного из самых известных сочинений Клами - сюиты "Калевала" стал Роберт Каянус - друг и сподвижник Сибелиуса, который был главным дирижёром Хельсинского филармонического оркестра. Каянус признал в Клами сильнейшегого оркестрового композитора и предложил ему в 1929г. написать композицию на основе финского национального эпоса. Идея была в том, чтобы современная музыка одержала победу "на старом поле славы". Найти подход к "Калевале", отличный от "царственного Сибелиуса" оказалось для композитора непростой задачей. Сначала она мыслилась им как оратория, потом как театральная постановка с рассказчиком и кордебалетом в 18 картинах. Позже Клами признавался, что несколько попыток проникнуть на чуждую ему территорию привели в итоге к написанию серой и скучной музыки, и я решил сменить пластинку". Клами, вдохновившись русским сказочным примитивизмом, взял за образец "Жар-птицу", "Весну священную" и "Скифскую сюиту". Премьера "Калевалы" состоялась в 1933 году, первая версия включала скерцо "Приключения Лемминкяйнена на острове Саари", в котором Клами откровенно издевался над романтической традицией. Спустя годы, когда мир изменился и Клами вернулся домой с войны в феврале 1942 года он начал переделывать сюиту, заменив неудачную часть новой - более светлой и лёгкой в духе Равеля и "Петрушки". Премьера окончательной версии состоялась в 1943 году с большим успехом. Если Сибелиус обращался к миру Калевалы, изображая портреты её героев, то сюита Клами - оркестровая фреска, где изначальная пустота хаоса (1я часть), эволюционирует в празднование сотворения мира, цветение весны (2я часть); скерцо (Танец дриад) рисует блаженство солнечного лета, лишь в 4й части появляется герои Калевалы, но и то лишь опосредованно в виде Колыбельной, которую мать поёт Лемминкяйнену. Финал сюиты - живописный момент ковки Сампо - волшебной мельницы, источника изобилия и счастья.
Среди других наиболее интересных сочинений - "Морские картины" (1930-32). Выросший на берегу Финского залива, Клами с детства был очарован морем. По словам композитора, он не стремился изобразить водную стихию звуками, это скорее философская притча, поданная в переломлении колористических пряностей импрессионизма. Тем не менее, выдающиеся изобразительные качества музыки Клами здесь нельзя не заметить. 1я картина изображает туманное утро. 2я, в духе испанского танца - грозного капитана Скрапухината. 3я - "Покинутый парусник" навеяна поэмой Поля Валери ("Меланхолия... отражение якорей в спокойной воде порта, мир из длинных цепей, чувственный аромат бочек, водоросли ...). Интересно слушать, как мотивы в духе прелюдий Дебюсси здесь соединены с вальсом, напоминающем о Сибелиусе. 4я "Ноктюрн (Песня вперёдсмотрящего)" - картина тихой ночи в море на фоне фольклорной мелодии. 5я - танцевальная сцена. Последняя 6я картина с названием "3 балла" (обозначение скорости ветра и волнения моря по шкале Бофорта) запечатлела "с натуры" виды моря. Здесь звучит явная цитата из Равеля - излюбленное финским композитором "Болеро".
Увертюра на случай (1951) написана к юбилею Финского радио, как мелочь. Вместе с тем, в этом рафинированном образчике позднего творчества Клами ненавязчиво представлены основные элементы его стиля. Начальный импрессионистский кусок, сменяется типичным неоклассическим Allegro, напоминающим своей игривостью музыку Прокофьева. Мелькают различные темы явно фольклорного характера, которым композитор не позволяет вылиться в широкие мелодии, чтобы поддержать кинетическую энергию.
Идею написания "Черемисской Фантазии" для виолончели с оркестром на народные мелодии из Черемисы (ныне известной как Мари), композитору подал в 1930м году ислледователь финно-угорской народной музыки, профессор искусствоведения Хельсинского университета А.Вайсанен. Это одна из признанных жемчужин виолончельного репертуара в Финляндии. Нежные полные волшебного очарования пентатонные фольклорные мелодии и песенные ритмы древнего финского народа с берегов Волги, как и в "Калевале", трактуются в духе русского музыкального примитивизма начала 20го века.
Концерт для скрипки с оркестром был написан в 1940-43. После первого исполнения в Стокгольме в 1944 году, партитура пропала без вести и была обнаружена лишь 1957 году в архивах шведского радио. Между тем, Клами переписал концерт заново ещё в 1954 году. Поэтому существуют две его версии, критики предпочитают вторую, которая здесь и представлена. В новой версии Клами сократил концерт на несколько минут, опустив оркестровое вступление и обширную каденцию из разработки, а также полностью переписал 2ю часть, поскольку, шведские критики жаловались, что её главная тема слишком сильно напоминала народную песню времён войны "Top Hat". Финал также был написан заново. Моделью концерта для Клами были концерты Прокофьева и Стравинского 30х годов. Мелодии отличаются стилистическим разнообразием - и романтика, и неоклассика и джаз (из-за такого смешения некоторым там слышится и Шостакович). Хотя концерт Клами не является одним из так называемых "великих скрипичных концертов", тем не менее это единственный финский скрипичный концерт второй половины 20го века, который до сих пор регулярно исполняют в концертных программах.
Второй концерт для фортепиано с оркестром (1950) написан композитором к своему 50-летию. Концерт видимо задумывался как строгое неоклассическое сочинение (оркестр состоит из одних струнных), но непобедимое музыкальное остроумие автора даёт о себе знать. Оно проявляется в необычно длинной фортепианной каденции, узнаваемой цитаты из Весны священной (Хождение по кругам), в кусках почти пуленковской музыки несвойственной композитору. Медленная вторая часть (Larghetto) - изящные вариации на красивую тему в духе Паваны. Энергичный и юмористический финал Allegro скерцандо странным образом снова напоминает образы Прокофьева и Шостаковича. Всё-таки Россия, пусть и советская, финнам никогда не была чужой...
Ууно Клами



Показать сообщения:    

Текущее время: 08-Дек 09:02

Часовой пояс: UTC + 3


Вы не можете начинать темы
Вы не можете отвечать на сообщения
Вы не можете редактировать свои сообщения
Вы не можете удалять свои сообщения
Вы не можете голосовать в опросах
Вы не можете прикреплять файлы к сообщениям
Вы не можете скачивать файлы