(Classical) Mieczyslaw Weinberg - Symphony No. 3, Op. 45 and Suite No. 4, Op. 55d (Gothenburg Symphony Orchestra, Thord Svedlund) Chandos CHSA 5089 - 2011, FLAC (tracks+.cue) lossless


 

[Цитировать]

Mieczyslaw Weinberg - Symphony No. 3 and Suite No. 4
Жанр: Classical
Год издания диска: 2011
Издатель (лейбл): Chandos
Номер по каталогу: CHSA 5089
Дата записи: 2010
Аудиокодек: FLAC
Тип рипа: tracks+.cue
Битрейт аудио: lossless
Продолжительность: 00:49:52
Источник: скачано из сети
Наличие сканов в содержимом раздачи: да
Исполнители:
Gothenburg Symphony Orchestra (The National Orchestra of Sweden)
Thord Svedlund
Трэклист:
Mieczyslaw Weinberg (1919-1996)
Symphony No. 3, Op. 45 (1949-50, revised 1959)
01. Symphony No. 3. I. Allegro (10:29)
02. Symphony No. 3. II. Allegro giocoso (04:43)
03. Symphony No. 3. III. Adagio (09:19)
04. Symphony No. 3. IV. Allegro vivace (08:20)
Suite No. 4 from 'The Golden Key', Op. 55d (1954-64) for large orchestra.
05. 1. Burattino's Dance (02:08)
06. 2. Elegy (03:03)
07. 3. Dance of Artemon (01:16)
08. 4. Dance of the Cricket (00:44)
09. 5. Dance of the Cat and Fox (01:45)
10. 6. Dance of Shushera the Rat (01:05)
11. 7. The Lesson (02:46)
12. 8. The Pursuit (04:14)

LOG EAC CD:

Exact Audio Copy V1.0 beta 3 from 29. August 2011
EAC extraction logfile from 11. April 2012, 16:11
Mieczyslaw Weinberg / Symphony No. 3 etc.
Used drive : PLEXTOR DVDR PX-860A Adapter: 0 ID: 0
Read mode : SecureUtilize accurate stream : YesDefeat audio cache : YesMake use of C2 pointers : No
Read offset correction : 96Overread into Lead-In and Lead-Out : NoFill up missing offset samples with silence : YesDelete leading and trailing silent blocks : NoNull samples used in CRC calculations : YesUsed interface : Native Win32 interface for Win NT & 2000Gap handling : Appended to previous track
Used output format : User Defined EncoderSelected bitrate : 1024 kBit/sQuality : HighAdd ID3 tag : NoCommand line compressor : C:\Program Files\Exact Audio Copy\Flac\flac.exeAdditional command line options : -8 -V -T "ARTIST=%artist%" -T "TITLE=%title%" -T "ALBUM=%albumtitle%" -T "DATE=%year%" -T "TRACKNUMBER=%tracknr%" -T "GENRE=%genre%" -T "PERFORMER=%albuminterpret%" -T "COMPOSER=%composer%" %haslyrics%--tag-from-file=LYRICS="%lyricsfile%"%haslyrics% -T "ALBUMARTIST=%albumartist%" -T "DISCNUMBER=%cdnumber%" -T "TOTALDISCS=%totalcds%" -T "TOTALTRACKS=%numtracks%" -T "COMMENT=%comment%" %source% -o %dest%
TOC of the extracted CD
Track | Start | Length | Start sector | End sector --------------------------------------------------------- 1 | 0:00.00 | 10:29.18 | 0 | 47192 2 | 10:29.18 | 4:42.55 | 47193 | 68397 3 | 15:11.73 | 9:18.50 | 68398 | 110297 4 | 24:30.48 | 8:20.05 | 110298 | 147802 5 | 32:50.53 | 2:08.20 | 147803 | 157422 6 | 34:58.73 | 3:03.35 | 157423 | 171182 7 | 38:02.33 | 1:15.72 | 171183 | 176879 8 | 39:18.30 | 0:44.25 | 176880 | 180204 9 | 40:02.55 | 1:44.55 | 180205 | 188059 10 | 41:47.35 | 1:04.60 | 188060 | 192919 11 | 42:52.20 | 2:45.65 | 192920 | 205359 12 | 45:38.10 | 4:13.45 | 205360 | 224379
Track 1
Filename I:\DL\Mieczyslaw Weinberg - Symphony No. 3 etc. (2011) [FLAC]\01 - Symphony No. 3. I. Allegro.wav
Pre-gap length 0:00:02.00
Peak level 100.0 % Extraction speed 5.5 X Track quality 100.0 % Test CRC 93DB6AAC Copy CRC 93DB6AAC Track not present in AccurateRip database Copy OK
Track 2
Filename I:\DL\Mieczyslaw Weinberg - Symphony No. 3 etc. (2011) [FLAC]\02 - Symphony No. 3. II. Allegro giocoso.wav
Pre-gap length 0:00:05.17
Peak level 94.9 % Extraction speed 5.9 X Track quality 100.0 % Test CRC 94BCF7A1 Copy CRC 94BCF7A1 Track not present in AccurateRip database Copy OK
Track 3
Filename I:\DL\Mieczyslaw Weinberg - Symphony No. 3 etc. (2011) [FLAC]\03 - Symphony No. 3. III. Adagio.wav
Pre-gap length 0:00:03.50
Peak level 91.2 % Extraction speed 6.9 X Track quality 100.0 % Test CRC B8631D30 Copy CRC B8631D30 Track not present in AccurateRip database Copy OK
Track 4
Filename I:\DL\Mieczyslaw Weinberg - Symphony No. 3 etc. (2011) [FLAC]\04 - Symphony No. 3. IV. Allegro vivace.wav
Pre-gap length 0:00:05.44
Peak level 95.2 % Extraction speed 7.5 X Track quality 100.0 % Test CRC B3993738 Copy CRC B3993738 Track not present in AccurateRip database Copy OK
Track 5
Filename I:\DL\Mieczyslaw Weinberg - Symphony No. 3 etc. (2011) [FLAC]\05 - Suite No. 4 from 'The Golden Key'. 1. Burattino's Dance.wav
Pre-gap length 0:00:08.84
Peak level 75.4 % Extraction speed 6.5 X Track quality 100.0 % Test CRC 02029477 Copy CRC 02029477 Track not present in AccurateRip database Copy OK
Track 6
Filename I:\DL\Mieczyslaw Weinberg - Symphony No. 3 etc. (2011) [FLAC]\06 - Suite No. 4 from 'The Golden Key'. 2. Elegy.wav
Peak level 28.7 % Extraction speed 7.2 X Track quality 100.0 % Test CRC 68CD0F62 Copy CRC 68CD0F62 Track not present in AccurateRip database Copy OK
Track 7
Filename I:\DL\Mieczyslaw Weinberg - Symphony No. 3 etc. (2011) [FLAC]\07 - Suite No. 4 from 'The Golden Key'. 3. Dance of Artemon.wav
Peak level 44.6 % Extraction speed 5.7 X Track quality 100.0 % Test CRC DDB59414 Copy CRC DDB59414 Track not present in AccurateRip database Copy OK
Track 8
Filename I:\DL\Mieczyslaw Weinberg - Symphony No. 3 etc. (2011) [FLAC]\08 - Suite No. 4 from 'The Golden Key'. 4. Dance of the Cricket.wav
Peak level 57.7 % Extraction speed 4.7 X Track quality 100.0 % Test CRC 667930FB Copy CRC 667930FB Track not present in AccurateRip database Copy OK
Track 9
Filename I:\DL\Mieczyslaw Weinberg - Symphony No. 3 etc. (2011) [FLAC]\09 - Suite No. 4 from 'The Golden Key'. 5. Dance of the Cat and Fox.wav
Peak level 71.8 % Extraction speed 6.5 X Track quality 100.0 % Test CRC AF1738BF Copy CRC AF1738BF Track not present in AccurateRip database Copy OK
Track 10
Filename I:\DL\Mieczyslaw Weinberg - Symphony No. 3 etc. (2011) [FLAC]\10 - Suite No. 4 from 'The Golden Key'. 6. Dance of Shushera the Rat.wav
Peak level 93.4 % Extraction speed 5.6 X Track quality 100.0 % Test CRC 13B4FECD Copy CRC 13B4FECD Track not present in AccurateRip database Copy OK
Track 11
Filename I:\DL\Mieczyslaw Weinberg - Symphony No. 3 etc. (2011) [FLAC]\11 - Suite No. 4 from 'The Golden Key'. 7. The Lesson.wav
Peak level 93.4 % Extraction speed 7.5 X Track quality 100.0 % Test CRC 90478978 Copy CRC 90478978 Track not present in AccurateRip database Copy OK
Track 12
Filename I:\DL\Mieczyslaw Weinberg - Symphony No. 3 etc. (2011) [FLAC]\12 - Suite No. 4 from 'The Golden Key'. 8. The Pursuit.wav
Peak level 93.4 % Extraction speed 8.0 X Track quality 100.0 % Test CRC 87248CBE Copy CRC 87248CBE Track not present in AccurateRip database Copy OK
None of the tracks are present in the AccurateRip database
No errors occurred
End of status report
---- CUETools DB Plugin V2.1.3
[CTDB TOCID: 4ryH37GxcXdfNV6BjG2jVBeNOOM-] disk not present in database, Submit result: 4ryH37GxcXdfNV6BjG2jVBeNOOM- has been uploaded
==== Log checksum 2B42549D8746FE921D3745982B6562FAD5775BC8043E3762051FA5EDF7217B40 ====

LOG (.CUE):

REM GENRE ClassicalREM DATE 2011REM DISCID 910BAF0CREM COMMENT "ExactAudioCopy v1.0b3"PERFORMER "Mieczyslaw Weinberg"TITLE "Symphony No. 3 etc."FILE "01 - Symphony No. 3. I. Allegro.wav" WAVE TRACK 01 AUDIO TITLE "Symphony No. 3. I. Allegro" PERFORMER "Mieczyslaw Weinberg" ISRC GBLWD1104901 INDEX 01 00:00:00 TRACK 02 AUDIO TITLE "Symphony No. 3. II. Allegro giocoso" PERFORMER "Mieczyslaw Weinberg" ISRC GBLWD1104902 INDEX 00 10:24:05FILE "02 - Symphony No. 3. II. Allegro giocoso.wav" WAVE INDEX 01 00:00:00 TRACK 03 AUDIO TITLE "Symphony No. 3. III. Adagio" PERFORMER "Mieczyslaw Weinberg" ISRC GBLWD1104903 INDEX 00 04:39:17FILE "03 - Symphony No. 3. III. Adagio.wav" WAVE INDEX 01 00:00:00 TRACK 04 AUDIO TITLE "Symphony No. 3. IV. Allegro vivace" PERFORMER "Mieczyslaw Weinberg" ISRC GBLWD1104904 INDEX 00 09:13:17FILE "04 - Symphony No. 3. IV. Allegro vivace.wav" WAVE INDEX 01 00:00:00 TRACK 05 AUDIO TITLE "Suite No. 4 from 'The Golden Key'. 1. Burattino's Dance" PERFORMER "Mieczyslaw Weinberg" ISRC GBLWD1104905 INDEX 00 08:11:17FILE "05 - Suite No. 4 from 'The Golden Key'. 1. Burattino's Dance.wav" WAVE INDEX 01 00:00:00FILE "06 - Suite No. 4 from 'The Golden Key'. 2. Elegy.wav" WAVE TRACK 06 AUDIO TITLE "Suite No. 4 from 'The Golden Key'. 2. Elegy" PERFORMER "Mieczyslaw Weinberg" ISRC GBLWD1104906 INDEX 01 00:00:00FILE "07 - Suite No. 4 from 'The Golden Key'. 3. Dance of Artemon.wav" WAVE TRACK 07 AUDIO TITLE "Suite No. 4 from 'The Golden Key'. 3. Dance of Artemon" PERFORMER "Mieczyslaw Weinberg" ISRC GBLWD1104907 INDEX 01 00:00:00FILE "08 - Suite No. 4 from 'The Golden Key'. 4. Dance of the Cricket.wav" WAVE TRACK 08 AUDIO TITLE "Suite No. 4 from 'The Golden Key'. 4. Dance of the Cricket" PERFORMER "Mieczyslaw Weinberg" ISRC GBLWD1104908 INDEX 01 00:00:00FILE "09 - Suite No. 4 from 'The Golden Key'. 5. Dance of the Cat and Fox.wav" WAVE TRACK 09 AUDIO TITLE "Suite No. 4 from 'The Golden Key'. 5. Dance of the Cat and Fox" PERFORMER "Mieczyslaw Weinberg" ISRC GBLWD1104909 INDEX 01 00:00:00FILE "10 - Suite No. 4 from 'The Golden Key'. 6. Dance of Shushera the Rat.wav" WAVE TRACK 10 AUDIO TITLE "Suite No. 4 from 'The Golden Key'. 6. Dance of Shushera the Rat" PERFORMER "Mieczyslaw Weinberg" ISRC GBLWD1104910 INDEX 01 00:00:00FILE "11 - Suite No. 4 from 'The Golden Key'. 7. The Lesson.wav" WAVE TRACK 11 AUDIO TITLE "Suite No. 4 from 'The Golden Key'. 7. The Lesson" PERFORMER "Mieczyslaw Weinberg" ISRC GBLWD1104911 INDEX 01 00:00:00FILE "12 - Suite No. 4 from 'The Golden Key'. 8. The Pursuit.wav" WAVE TRACK 12 AUDIO TITLE "Suite No. 4 from 'The Golden Key'. 8. The Pursuit" PERFORMER "Mieczyslaw Weinberg" ISRC GBLWD1104912 INDEX 01 00:00:00
mp3



Показать сообщения:    

Текущее время: 08-Дек 10:57

Часовой пояс: UTC + 3


Вы не можете начинать темы
Вы не можете отвечать на сообщения
Вы не можете редактировать свои сообщения
Вы не можете удалять свои сообщения
Вы не можете голосовать в опросах
Вы не можете прикреплять файлы к сообщениям
Вы не можете скачивать файлы