(Classical) Mieczyslaw Weinberg - Chamber Symphonies Nos. 3, Op. 151 and 4, Op. 153 (Helsingborg Symphony Orchestra, Thord Svedlund) Chandos CHSA 5146 - 2015, FLAC (tracks+.cue) lossless


 

[Цитировать]

Mieczyslaw Weinberg - Chamber Symphonies Nos. 3 and 4
Жанр: Classical
Год издания диска: 2015
Издатель (лейбл): Chandos
Номер по каталогу: CHSA 5146
Дата записи: 2014
Аудиокодек: FLAC
Тип рипа: tracks+.cue
Битрейт аудио: lossless
Продолжительность: 01:05:55
Источник: собственный рип
Наличие сканов в содержимом раздачи: да
Исполнители:
Boris Alexandrowitsch Tschaikowski gewidmet (5-8)
Johnny Jannesson clarinet (5-8)
Fredrik Burstedt violin (5-8)
Niklaas Weltman cello (5-8)
Helsingborg Symphony Orchestra
Thord Svedlund
Трэклист:
Mieczyslaw Weinberg (1919-1996)
Chamber Symphony No. 3, Op. 151 (1990)
in B flat major - in B-Dur - en si bemol majeur for string orchestra

01. I. Lento (10:40)
02. II. Allegro molto (05:14)
03. III. Adagio (07:05)
04. IV. Andantino (10:15)
Chamber Symphony No. 4, Op. 153 (1992)
in B major - in H-Dur - en si majeur for obbligato clarinet, triangle, and string orchestra

05. Lento (07:43)
06. Allegro molto - Moderato (07:23)
07. Adagio - Meno mosso (09:45)
08. Andantino - Adagissimo (07:50)

LOG EAC CD:

Exact Audio Copy V1.0 beta 3 from 29. August 2011
EAC extraction logfile from 31. January 2015, 21:12
Thord Svedlund / Weinberg- Chamber Symphonies Nos. 3 and 4
Used drive : PIONEER DVD-RW DVR-221L Adapter: 2 ID: 0
Read mode : SecureUtilize accurate stream : YesDefeat audio cache : YesMake use of C2 pointers : No
Read offset correction : 6Overread into Lead-In and Lead-Out : NoFill up missing offset samples with silence : YesDelete leading and trailing silent blocks : NoNull samples used in CRC calculations : YesUsed interface : Installed external ASPI interfaceGap handling : Appended to previous track
Used output format : User Defined EncoderSelected bitrate : 768 kBit/sQuality : HighAdd ID3 tag : NoCommand line compressor : C:\Program Files\Exact Audio Copy\Flac\flac.exeAdditional command line options : -6 -V -T "ARTIST=%artist%" -T "TITLE=%title%" -T "ALBUM=%albumtitle%" -T "DATE=%year%" -T "TRACKNUMBER=%tracknr%" -T "GENRE=%genre%" -T "COMMENT=%comment%" -T "ALBUMARTIST=%albuminterpret%" -T "COMPOSER=%composer%" -T "DISCNUMBER=%cdnumber%" -T "TOTALDISCS=%totalcds%" -T "TOTALTRACKS=%numtracks%" %source% -o %dest%
TOC of the extracted CD
Track | Start | Length | Start sector | End sector --------------------------------------------------------- 1 | 0:00.00 | 10:40.17 | 0 | 48016 2 | 10:40.17 | 5:13.72 | 48017 | 71563 3 | 15:54.14 | 7:04.46 | 71564 | 103409 4 | 22:58.60 | 10:14.43 | 103410 | 149502 5 | 33:13.28 | 7:43.28 | 149503 | 184255 6 | 40:56.56 | 7:22.57 | 184256 | 217462 7 | 48:19.38 | 9:44.61 | 217463 | 261323 8 | 58:04.24 | 7:49.55 | 261324 | 296553
Track 1
Filename D:\EAC\01 - Chamber Symphony No. 3, Op. 151 - I. Lento.wav
Pre-gap length 0:00:02.00
Peak level 49.5 % Extraction speed 5.8 X Track quality 100.0 % Test CRC 88B447C9 Copy CRC 88B447C9 Track not present in AccurateRip database Copy OK
Track 2
Filename D:\EAC\02 - II. Allegro molto.wav
Peak level 100.0 % Extraction speed 6.3 X Track quality 100.0 % Test CRC 9F054153 Copy CRC 9F054153 Track not present in AccurateRip database Copy OK
Track 3
Filename D:\EAC\03 - III. Adagio.wav
Peak level 45.7 % Extraction speed 6.1 X Track quality 99.9 % Test CRC 7A5B43F3 Copy CRC 7A5B43F3 Track not present in AccurateRip database Copy OK
Track 4
Filename D:\EAC\04 - IV. Andantino.wav
Peak level 29.2 % Extraction speed 8.1 X Track quality 100.0 % Test CRC 152ADBFF Copy CRC 152ADBFF Track not present in AccurateRip database Copy OK
Track 5
Filename D:\EAC\05 - Chamber Symphony No. 4, Op. 153 - Lento.wav
Peak level 33.5 % Extraction speed 8.5 X Track quality 100.0 % Test CRC C1670890 Copy CRC C1670890 Track not present in AccurateRip database Copy OK
Track 6
Filename D:\EAC\06 - Allegro molto - Moderato.wav
Peak level 90.1 % Extraction speed 9.0 X Track quality 100.0 % Test CRC 5A399BAD Copy CRC 5A399BAD Track not present in AccurateRip database Copy OK
Track 7
Filename D:\EAC\07 - Adagio - Meno mosso.wav
Peak level 73.4 % Extraction speed 9.7 X Track quality 100.0 % Test CRC 53668B42 Copy CRC 53668B42 Track not present in AccurateRip database Copy OK
Track 8
Filename D:\EAC\08 - Andantino - Adagissimo.wav
Peak level 94.9 % Extraction speed 10.1 X Track quality 100.0 % Test CRC D7A52DB1 Copy CRC D7A52DB1 Track not present in AccurateRip database Copy OK
None of the tracks are present in the AccurateRip database
No errors occurred
End of status report
==== Log checksum 48D31A9DF2C66347F2DE8BA8BC2F24E8C885CF183334C031D882418EB23F6E7C ====

LOG (.CUE):

REM GENRE ClassicalREM DATE 2015REM DISCID 7A0F7208REM COMMENT "ExactAudioCopy v1.0b3"PERFORMER "Thord Svedlund"TITLE "Weinberg- Chamber Symphonies Nos. 3 and 4"FILE "01 - Chamber Symphony No. 3, Op. 151 - I. Lento.wav" WAVE TRACK 01 AUDIO TITLE "Chamber Symphony No. 3, Op. 151 - I. Lento" PERFORMER "Thord Svedlund" INDEX 01 00:00:00FILE "02 - II. Allegro molto.wav" WAVE TRACK 02 AUDIO TITLE "II. Allegro molto" PERFORMER "Thord Svedlund" INDEX 01 00:00:00FILE "03 - III. Adagio.wav" WAVE TRACK 03 AUDIO TITLE "III. Adagio" PERFORMER "Thord Svedlund" INDEX 01 00:00:00FILE "04 - IV. Andantino.wav" WAVE TRACK 04 AUDIO TITLE "IV. Andantino" PERFORMER "Thord Svedlund" INDEX 01 00:00:00FILE "05 - Chamber Symphony No. 4, Op. 153 - Lento.wav" WAVE TRACK 05 AUDIO TITLE "Chamber Symphony No. 4, Op. 153 - Lento" PERFORMER "Thord Svedlund" INDEX 01 00:00:00FILE "06 - Allegro molto - Moderato.wav" WAVE TRACK 06 AUDIO TITLE "Allegro molto - Moderato" PERFORMER "Thord Svedlund" INDEX 01 00:00:00FILE "07 - Adagio - Meno mosso.wav" WAVE TRACK 07 AUDIO TITLE "Adagio - Meno mosso" PERFORMER "Thord Svedlund" INDEX 01 00:00:00FILE "08 - Andantino - Adagissimo.wav" WAVE TRACK 08 AUDIO TITLE "Andantino - Adagissimo" PERFORMER "Thord Svedlund" INDEX 01 00:00:00
mp3



Показать сообщения:    

Текущее время: 11-Дек 11:04

Часовой пояс: UTC + 3


Вы не можете начинать темы
Вы не можете отвечать на сообщения
Вы не можете редактировать свои сообщения
Вы не можете удалять свои сообщения
Вы не можете голосовать в опросах
Вы не можете прикреплять файлы к сообщениям
Вы не можете скачивать файлы