(Classical, Orchestral, Romantic) Anton Bruckner - Symphonies 1, 2, 3 (Philharmonie Festiva / Gerd Schaller) (3CD) - 2012, FLAC (tracks+.cue) lossless


 

[Цитировать]

Anton Bruckner - Symphonies 1, 2, 3 (Philharmonie Festiva / Gerd Schaller) (3CD)
Жанр: Classical, Orchestral, Romantic
Страна-производитель диска: Europe
Год издания диска: 2012
Издатель (лейбл): Profil Medien GmbH
Номер по каталогу: PH12022
Дата записи: 2011
Аудиокодек: FLAC
Тип рипа: tracks+.cue
Битрейт аудио: lossless
Продолжительность: 51:35 + 70:21 + 70:24
Источник: скачано с
сайт-источник/ник/другое: waffles.fm
Наличие сканов в содержимом раздачи:
Треклист:

CD1

Symphonie No.1 C-moll, Version 1866 (Edition Carragan)
1. I. Allegro 14:12
2. II Adagio 12:51
3. III Scherzo / Trio 9:00
4. IV Finale. Bewegt, feurig 15:32

CD2

Symphonie No. 2 C-moll, Version 1872 (Edition Carragan)
1. I Allegro. Ziemlich schnell 20:51
2. II Scherzo. Schnell Trio 10:58
3. III Adagio. Feierlich, etwas bewegt 17:56
4. IV Finale. Mehr schnell 20:36

CD2

Symphonie No. 3 D-moll, Version 1874 (Edition Carragan)
1. I Gemassigt, misterioso 24:23
2. II Adagio. Feierlich 20:57
3. III Scherzo. Ziemlich schnell 6:57
4. IV Finale. Allegro 18:08
Исполнители:
Philharmonie Festiva, conductor: Gerd Schaller

Лог создания рипаCD1

Exact Audio Copy V1.0 beta 3 from 29. August 2011
EAC extraction logfile from 29. May 2014, 19:33
Philharmonie Festiva, Gerd Schaller / Bruckner: Symphonies 1-3 cd1
Used drive : HL-DT-STDVDRAM GE20NU10 Adapter: 0 ID: 0
Read mode : SecureUtilize accurate stream : YesDefeat audio cache : YesMake use of C2 pointers : No
Read offset correction : 667Overread into Lead-In and Lead-Out : NoFill up missing offset samples with silence : YesDelete leading and trailing silent blocks : NoNull samples used in CRC calculations : YesUsed interface : Native Win32 interface for Win NT & 2000Gap handling : Appended to previous track
Used output format : User Defined EncoderSelected bitrate : 1024 kBit/sQuality : HighAdd ID3 tag : NoCommand line compressor : C:\Program Files (x86)\Exact Audio Copy\Flac\flac.exeAdditional command line options : -8 -V -T "ARTIST=%artist%" -T "TITLE=%title%" -T "ALBUM=%albumtitle%" -T "DATE=%year%" -T "TRACKNUMBER=%tracknr%" -T "GENRE=%genre%" -T "PERFORMER=%albuminterpret%" -T "COMPOSER=%composer%" %haslyrics%--tag-from-file=LYRICS="%lyricsfile%"%haslyrics% -T "ALBUMARTIST=%albumartist%" -T "DISCNUMBER=%cdnumber%" -T "TOTALDISCS=%totalcds%" -T "TOTALTRACKS=%numtracks%" -T "COMMENT=%comment%" %source% -o %dest%
TOC of the extracted CD
Track | Start | Length | Start sector | End sector --------------------------------------------------------- 1 | 0:00.00 | 14:11.47 | 0 | 63871 2 | 14:11.47 | 12:52.21 | 63872 | 121792 3 | 27:03.68 | 8:59.32 | 121793 | 162249 4 | 36:03.25 | 15:31.65 | 162250 | 232139
Track 1
Filename C:\Eac Rips\01 - I. Allegro.wav
Pre-gap length 0:00:02.00
Peak level 85.4 % Extraction speed 5.4 X Track quality 100.0 % Test CRC C4A8769D Copy CRC C4A8769D Track not present in AccurateRip database Copy OK
Track 2
Filename C:\Eac Rips\02 - II. Adagio.wav
Peak level 75.0 % Extraction speed 6.7 X Track quality 100.0 % Test CRC 8268C2D9 Copy CRC 8268C2D9 Track not present in AccurateRip database Copy OK
Track 3
Filename C:\Eac Rips\03 - III. Scherzo- Schnell.wav
Peak level 80.2 % Extraction speed 7.3 X Track quality 100.0 % Test CRC 3506B7D9 Copy CRC 3506B7D9 Track not present in AccurateRip database Copy OK
Track 4
Filename C:\Eac Rips\04 - IV. Finale- Bewegt, Feurig.wav
Peak level 96.5 % Extraction speed 8.4 X Track quality 100.0 % Test CRC 83F5B8A1 Copy CRC 83F5B8A1 Track not present in AccurateRip database Copy OK
None of the tracks are present in the AccurateRip database
No errors occurred
End of status report
---- CUETools DB Plugin V2.1.3
[CTDB TOCID: ZifDoRxrp3oD12EGBI1INHS9mbc-] disk not present in database, Submit result: ZifDoRxrp3oD12EGBI1INHS9mbc- has been uploaded
==== Log checksum 82B6A42BB7BB28C8BC3B3E790F2080E2D45879DEE4798C34186CE0A6B7A7A75B ====

CD2

Exact Audio Copy V1.0 beta 3 from 29. August 2011
EAC extraction logfile from 29. May 2014, 20:05
Philharmonie Festiva, Gerd Schaller / Bruckner: Symphonies 1-3 cd2
Used drive : HL-DT-STDVDRAM GE20NU10 Adapter: 0 ID: 0
Read mode : SecureUtilize accurate stream : YesDefeat audio cache : YesMake use of C2 pointers : No
Read offset correction : 667Overread into Lead-In and Lead-Out : NoFill up missing offset samples with silence : YesDelete leading and trailing silent blocks : NoNull samples used in CRC calculations : YesUsed interface : Native Win32 interface for Win NT & 2000Gap handling : Appended to previous track
Used output format : User Defined EncoderSelected bitrate : 1024 kBit/sQuality : HighAdd ID3 tag : NoCommand line compressor : C:\Program Files (x86)\Exact Audio Copy\Flac\flac.exeAdditional command line options : -8 -V -T "ARTIST=%artist%" -T "TITLE=%title%" -T "ALBUM=%albumtitle%" -T "DATE=%year%" -T "TRACKNUMBER=%tracknr%" -T "GENRE=%genre%" -T "PERFORMER=%albuminterpret%" -T "COMPOSER=%composer%" %haslyrics%--tag-from-file=LYRICS="%lyricsfile%"%haslyrics% -T "ALBUMARTIST=%albumartist%" -T "DISCNUMBER=%cdnumber%" -T "TOTALDISCS=%totalcds%" -T "TOTALTRACKS=%numtracks%" -T "COMMENT=%comment%" %source% -o %dest%
TOC of the extracted CD
Track | Start | Length | Start sector | End sector --------------------------------------------------------- 1 | 0:00.00 | 20:51.45 | 0 | 93869 2 | 20:51.45 | 10:58.23 | 93870 | 143242 3 | 31:49.68 | 17:55.20 | 143243 | 223887 4 | 49:45.13 | 20:35.69 | 223888 | 316581
Track 1
Filename C:\Eac Rips\CD2\01 - I. Allegro.wav
Pre-gap length 0:00:02.00
Peak level 80.6 % Extraction speed 4.5 X Track quality 99.9 % Test CRC 7F392B42 Copy CRC 7F392B42 Track not present in AccurateRip database Copy OK
Track 2
Filename C:\Eac Rips\CD2\02 - II. Scherzo.wav
Peak level 64.8 % Extraction speed 5.3 X Track quality 99.9 % Test CRC 62A232AF Copy CRC 62A232AF Track not present in AccurateRip database Copy OK
Track 3
Filename C:\Eac Rips\CD2\03 - III. Adagio.wav
Peak level 45.2 % Extraction speed 6.7 X Track quality 100.0 % Test CRC CA619A0A Copy CRC CA619A0A Track not present in AccurateRip database Copy OK
Track 4
Filename C:\Eac Rips\CD2\04 - IV. Finale.wav
Peak level 96.7 % Extraction speed 7.7 X Track quality 100.0 % Test CRC 8FB6FD06 Copy CRC 8FB6FD06 Track not present in AccurateRip database Copy OK
None of the tracks are present in the AccurateRip database
No errors occurred
End of status report
---- CUETools DB Plugin V2.1.3
[CTDB TOCID: HFvKOf9c6xP1QJ7ZOVjXI_VLIT0-] disk not present in database, Submit result: HFvKOf9c6xP1QJ7ZOVjXI_VLIT0- has been uploaded
==== Log checksum 74B5EF631DDECE4E23D4D08F2256E6A018AE14D41799DE08B463C27124DEA023 ====

CD3

Exact Audio Copy V1.0 beta 3 from 29. August 2011
EAC extraction logfile from 29. May 2014, 20:36
Philharmonie Festiva, Gerd Schaller / Bruckner: Symphonies 1-3 cd3
Used drive : HL-DT-STDVDRAM GE20NU10 Adapter: 0 ID: 0
Read mode : SecureUtilize accurate stream : YesDefeat audio cache : YesMake use of C2 pointers : No
Read offset correction : 667Overread into Lead-In and Lead-Out : NoFill up missing offset samples with silence : YesDelete leading and trailing silent blocks : NoNull samples used in CRC calculations : YesUsed interface : Native Win32 interface for Win NT & 2000Gap handling : Appended to previous track
Used output format : User Defined EncoderSelected bitrate : 1024 kBit/sQuality : HighAdd ID3 tag : NoCommand line compressor : C:\Program Files (x86)\Exact Audio Copy\Flac\flac.exeAdditional command line options : -8 -V -T "ARTIST=%artist%" -T "TITLE=%title%" -T "ALBUM=%albumtitle%" -T "DATE=%year%" -T "TRACKNUMBER=%tracknr%" -T "GENRE=%genre%" -T "PERFORMER=%albuminterpret%" -T "COMPOSER=%composer%" %haslyrics%--tag-from-file=LYRICS="%lyricsfile%"%haslyrics% -T "ALBUMARTIST=%albumartist%" -T "DISCNUMBER=%cdnumber%" -T "TOTALDISCS=%totalcds%" -T "TOTALTRACKS=%numtracks%" -T "COMMENT=%comment%" %source% -o %dest%
TOC of the extracted CD
Track | Start | Length | Start sector | End sector --------------------------------------------------------- 1 | 0:00.00 | 24:23.70 | 0 | 109794 2 | 24:23.70 | 20:55.65 | 109795 | 203984 3 | 45:19.60 | 6:57.14 | 203985 | 235273 4 | 52:16.74 | 18:07.17 | 235274 | 316815
Track 1
Filename C:\Eac Rips\CD3\01 - I. Misterioso.wav
Pre-gap length 0:00:02.00
Peak level 97.8 % Extraction speed 4.9 X Track quality 100.0 % Test CRC 09C82038 Copy CRC 09C82038 Track not present in AccurateRip database Copy OK
Track 2
Filename C:\Eac Rips\CD3\02 - II. Adagio.wav
Peak level 70.1 % Extraction speed 6.4 X Track quality 100.0 % Test CRC 8FC6EC56 Copy CRC 8FC6EC56 Track not present in AccurateRip database Copy OK
Track 3
Filename C:\Eac Rips\CD3\03 - III. Scherzo.wav
Peak level 84.1 % Extraction speed 6.7 X Track quality 100.0 % Test CRC F2B05330 Copy CRC F2B05330 Track not present in AccurateRip database Copy OK
Track 4
Filename C:\Eac Rips\CD3\04 - IV. Finale. Allegro.wav
Peak level 96.0 % Extraction speed 7.7 X Track quality 100.0 % Test CRC 068326C9 Copy CRC 068326C9 Track not present in AccurateRip database Copy OK
None of the tracks are present in the AccurateRip database
No errors occurred
End of status report
---- CUETools DB Plugin V2.1.3
[CTDB TOCID: _NuPyvTDnd9mGyfCogQL0rZNkeM-] disk not present in database, Submit result: _NuPyvTDnd9mGyfCogQL0rZNkeM- has been uploaded
==== Log checksum 52601068A91534F3368B89F2DC569D57DC005D59F45D1C427026FCB273F2C583 ====

Содержание индексной карты (.CUE)CD1

REM GENRE SymphonyREM DATE 2012REM DISCID 2E0C1704REM COMMENT "ExactAudioCopy v1.0b3"PERFORMER "Philharmonie Festiva, Gerd Schaller"TITLE "Bruckner: Symphonies 1-3 cd1"FILE "01 - I. Allegro.wav" WAVE TRACK 01 AUDIO TITLE "I. Allegro" PERFORMER "Philharmonie Festiva, Gerd Schaller" FLAGS DCP INDEX 01 00:00:00FILE "02 - II. Adagio.wav" WAVE TRACK 02 AUDIO TITLE "II. Adagio" PERFORMER "Philharmonie Festiva, Gerd Schaller" FLAGS DCP INDEX 01 00:00:00FILE "03 - III. Scherzo- Schnell.wav" WAVE TRACK 03 AUDIO TITLE "III. Scherzo: Schnell" PERFORMER "Philharmonie Festiva, Gerd Schaller" FLAGS DCP INDEX 01 00:00:00FILE "04 - IV. Finale- Bewegt, Feurig.wav" WAVE TRACK 04 AUDIO TITLE "IV. Finale: Bewegt, Feurig" PERFORMER "Philharmonie Festiva, Gerd Schaller" FLAGS DCP INDEX 01 00:00:00

CD2

REM GENRE SymphonyREM DATE 2012REM DISCID 33107D04REM COMMENT "ExactAudioCopy v1.0b3"PERFORMER "Philharmonie Festiva, Gerd Schaller"TITLE "Bruckner: Symphonies 1-3 cd2"FILE "01 - I. Allegro.wav" WAVE TRACK 01 AUDIO TITLE "I. Allegro" PERFORMER "Philharmonie Festiva, Gerd Schaller" FLAGS DCP INDEX 01 00:00:00FILE "02 - II. Scherzo.wav" WAVE TRACK 02 AUDIO TITLE "II. Scherzo" PERFORMER "Philharmonie Festiva, Gerd Schaller" FLAGS DCP INDEX 01 00:00:00FILE "03 - III. Adagio.wav" WAVE TRACK 03 AUDIO TITLE "III. Adagio" PERFORMER "Philharmonie Festiva, Gerd Schaller" FLAGS DCP INDEX 01 00:00:00FILE "04 - IV. Finale.wav" WAVE TRACK 04 AUDIO TITLE "IV. Finale" PERFORMER "Philharmonie Festiva, Gerd Schaller" FLAGS DCP INDEX 01 00:00:00

CD3

REM GENRE SymphonyREM DATE 2012REM DISCID 2D108004REM COMMENT "ExactAudioCopy v1.0b3"PERFORMER "Philharmonie Festiva, Gerd Schaller"TITLE "Bruckner: Symphonies 1-3 cd3"FILE "01 - I. Misterioso.wav" WAVE TRACK 01 AUDIO TITLE "I. Misterioso" PERFORMER "Philharmonie Festiva, Gerd Schaller" FLAGS DCP INDEX 01 00:00:00FILE "02 - II. Adagio.wav" WAVE TRACK 02 AUDIO TITLE "II. Adagio" PERFORMER "Philharmonie Festiva, Gerd Schaller" FLAGS DCP INDEX 01 00:00:00FILE "03 - III. Scherzo.wav" WAVE TRACK 03 AUDIO TITLE "III. Scherzo" PERFORMER "Philharmonie Festiva, Gerd Schaller" FLAGS DCP INDEX 01 00:00:00FILE "04 - IV. Finale. Allegro.wav" WAVE TRACK 04 AUDIO TITLE "IV. Finale. Allegro" PERFORMER "Philharmonie Festiva, Gerd Schaller" FLAGS DCP INDEX 01 00:00:00
Доп. информация:

Album Info

Live recordings, July 2011, Abteikirche Ebrach, Bayerischer Rundfunk - Studio Franken
Executive producer: Dr. Ursula Adamski-Stormer
Director of recording: Lutz Wildner
Sound engineer: Helmut Volkert



Показать сообщения:    

Текущее время: 09-Дек 22:28

Часовой пояс: UTC + 3


Вы не можете начинать темы
Вы не можете отвечать на сообщения
Вы не можете редактировать свои сообщения
Вы не можете удалять свои сообщения
Вы не можете голосовать в опросах
Вы не можете прикреплять файлы к сообщениям
Вы не можете скачивать файлы